  0
SECTION
  2
HEADER
  9
$ACADVER
  1
AC1009
  9
$INSBASE
 10
0.0
 20
0.0
 30
0.0
  9
$EXTMIN
 10
-7.611802
 20
-1.333789
 30
0.0
  9
$EXTMAX
 10
14.831493
 20
9.705047
 30
0.0
  9
$LIMMIN
 10
0.0
 20
0.0
  9
$LIMMAX
 10
45.0
 20
35.0
  9
$ORTHOMODE
 70
     1
  9
$REGENMODE
 70
     1
  9
$FILLMODE
 70
     1
  9
$QTEXTMODE
 70
     0
  9
$MIRRTEXT
 70
     1
  9
$DRAGMODE
 70
     2
  9
$LTSCALE
 40
1.0
  9
$OSMODE
 70
     0
  9
$ATTMODE
 70
     1
  9
$TEXTSIZE
 40
0.2
  9
$TRACEWID
 40
0.05
  9
$TEXTSTYLE
  7
STANDARD
  9
$CLAYER
  8
OBJMEDIUM
  9
$CELTYPE
  6
BYLAYER
  9
$CECOLOR
 62
   256
  9
$DIMSCALE
 40
0.0
  9
$DIMASZ
 40
0.15
  9
$DIMEXO
 40
0.063
  9
$DIMDLI
 40
0.38
  9
$DIMRND
 40
0.0
  9
$DIMDLE
 40
0.0
  9
$DIMEXE
 40
0.063
  9
$DIMTP
 40
0.0
  9
$DIMTM
 40
0.0
  9
$DIMTXT
 40
0.125
  9
$DIMCEN
 40
0.09
  9
$DIMTSZ
 40
0.0
  9
$DIMTOL
 70
     0
  9
$DIMLIM
 70
     0
  9
$DIMTIH
 70
     1
  9
$DIMTOH
 70
     1
  9
$DIMSE1
 70
     0
  9
$DIMSE2
 70
     0
  9
$DIMTAD
 70
     0
  9
$DIMZIN
 70
     0
  9
$DIMBLK
  1

  9
$DIMASO
 70
     1
  9
$DIMSHO
 70
     1
  9
$DIMPOST
  1

  9
$DIMAPOST
  1

  9
$DIMALT
 70
     0
  9
$DIMALTD
 70
     2
  9
$DIMALTF
 40
25.4
  9
$DIMLFAC
 40
1.0
  9
$DIMTOFL
 70
     0
  9
$DIMTVP
 40
0.0
  9
$DIMTIX
 70
     0
  9
$DIMSOXD
 70
     0
  9
$DIMSAH
 70
     0
  9
$DIMBLK1
  1

  9
$DIMBLK2
  1

  9
$DIMSTYLE
  2
*UNNAMED
  9
$DIMCLRD
 70
     0
  9
$DIMCLRE
 70
     0
  9
$DIMCLRT
 70
     0
  9
$DIMTFAC
 40
0.8
  9
$DIMGAP
 40
0.09
  9
$LUNITS
 70
     2
  9
$LUPREC
 70
     3
  9
$SKETCHINC
 40
0.1
  9
$FILLETRAD
 40
0.0
  9
$AUNITS
 70
     0
  9
$AUPREC
 70
     1
  9
$MENU
  1
adv-in
  9
$ELEVATION
 40
0.0
  9
$PELEVATION
 40
0.0
  9
$THICKNESS
 40
0.0
  9
$LIMCHECK
 70
     0
  9
$BLIPMODE
 70
     0
  9
$CHAMFERA
 40
0.0
  9
$CHAMFERB
 40
0.0
  9
$SKPOLY
 70
     0
  9
$TDCREATE
 40
2451099.617357986
  9
$TDUPDATE
 40
2451099.618679051
  9
$TDINDWG
 40
0.0007368056
  9
$TDUSRTIMER
 40
0.0007368056
  9
$USRTIMER
 70
     1
  9
$ANGBASE
 50
0.0
  9
$ANGDIR
 70
     0
  9
$PDMODE
 70
     0
  9
$PDSIZE
 40
0.0
  9
$PLINEWID
 40
0.0
  9
$COORDS
 70
     1
  9
$SPLFRAME
 70
     0
  9
$SPLINETYPE
 70
     6
  9
$SPLINESEGS
 70
     8
  9
$ATTDIA
 70
     1
  9
$ATTREQ
 70
     1
  9
$HANDLING
 70
     0
  9
$HANDSEED
  5
0
  9
$SURFTAB1
 70
     6
  9
$SURFTAB2
 70
     6
  9
$SURFTYPE
 70
     6
  9
$SURFU
 70
     6
  9
$SURFV
 70
     6
  9
$UCSNAME
  2

  9
$UCSORG
 10
0.0
 20
0.0
 30
0.0
  9
$UCSXDIR
 10
1.0
 20
0.0
 30
0.0
  9
$UCSYDIR
 10
0.0
 20
1.0
 30
0.0
  9
$PUCSNAME
  2

  9
$PUCSORG
 10
0.0
 20
0.0
 30
0.0
  9
$PUCSXDIR
 10
1.0
 20
0.0
 30
0.0
  9
$PUCSYDIR
 10
0.0
 20
1.0
 30
0.0
  9
$USERI1
 70
     0
  9
$USERI2
 70
     0
  9
$USERI3
 70
     0
  9
$USERI4
 70
     0
  9
$USERI5
 70
     0
  9
$USERR1
 40
0.0
  9
$USERR2
 40
0.0
  9
$USERR3
 40
0.0
  9
$USERR4
 40
0.0
  9
$USERR5
 40
0.0
  9
$WORLDVIEW
 70
     1
  9
$SHADEDGE
 70
     3
  9
$SHADEDIF
 70
    70
  9
$TILEMODE
 70
     1
  9
$MAXACTVP
 70
    16
  9
$PINSBASE
 10
0.0
 20
0.0
 30
0.0
  9
$PLIMCHECK
 70
     1
  9
$PEXTMIN
 10
1.000000E+20
 20
1.000000E+20
 30
1.000000E+20
  9
$PEXTMAX
 10
-1.000000E+20
 20
-1.000000E+20
 30
-1.000000E+20
  9
$PLIMMIN
 10
0.0
 20
0.0
  9
$PLIMMAX
 10
10.499999
 20
7.999999
  9
$UNITMODE
 70
     0
  9
$VISRETAIN
 70
     0
  9
$PLINEGEN
 70
     0
  9
$PSLTSCALE
 70
     1
  9
$TREEDEPTH
 70
  3020
  9
$DWGCODEPAGE
  3
iso8859-1
  0
ENDSEC
  0
SECTION
  2
TABLES
  0
TABLE
  2
VPORT
 70
     2
  0
VPORT
  2
*ACTIVE
 70
     0
 10
0.0
 20
0.0
 11
1.0
 21
1.0
 12
-0.440997
 22
5.257516
 13
0.0
 23
0.0
 14
1.0
 24
1.0
 15
0.0
 25
0.0
 16
0.0
 26
0.0
 36
1.0
 17
0.0
 27
0.0
 37
0.0
 40
29.349724
 41
1.5232
 42
50.0
 43
0.0
 44
0.0
 50
0.0
 51
0.0
 71
     0
 72
   100
 73
     1
 74
     3
 75
     0
 76
     0
 77
     0
 78
     0
  0
ENDTAB
  0
TABLE
  2
LTYPE
 70
    37
  0
LTYPE
  2
CONTINUOUS
 70
    64
  3
Solid line
 72
    65
 73
     0
 40
0.0
  0
LTYPE
  2
CENTER2
 70
    64
  3
___ _ ___ _ ___ _ ___ _ ___ _ ___ _ ___ _ ___ _
 72
    65
 73
     4
 40
1.125
 49
0.75
 49
-0.125
 49
0.125
 49
-0.125
  0
LTYPE
  2
HIDDEN2
 70
    64
  3
__ __ __ __ __ __ __ __ __ __ __ __ __ __ __ __
 72
    65
 73
     2
 40
0.1875
 49
0.125
 49
-0.0625
  0
LTYPE
  2
PHANTOM2
 70
    64
  3
___ _ _ ___ _ _ ___ _ _ ___ _ _ ___ _ _ ___ _ _
 72
    65
 73
     6
 40
1.25
 49
0.625
 49
-0.125
 49
0.125
 49
-0.125
 49
0.125
 49
-0.125
  0
LTYPE
  2
DASHED2
 70
    64
  3
_ _ _ _ _ _ _ _ _ _ _ _ _ _ _ _ _ _ _ _ _ _ _ _
 72
    65
 73
     2
 40
0.375
 49
0.25
 49
-0.125
  0
LTYPE
  2
BORDER
 70
     0
  3
__ __ . __ __ . __ __ . __ __ . __ __ . __ __ .
 72
    65
 73
     6
 40
1.75
 49
0.5
 49
-0.25
 49
0.5
 49
-0.25
 49
0.0
 49
-0.25
  0
LTYPE
  2
BORDER2
 70
     0
  3
__.__.__.__.__.__.__.__.__.__.__.__.__.__.__.__
 72
    65
 73
     6
 40
0.875
 49
0.25
 49
-0.125
 49
0.25
 49
-0.125
 49
0.0
 49
-0.125
  0
LTYPE
  2
BORDERX2
 70
     0
  3
____  ____  .  ____  ____  .  ____  ____  .  __
 72
    65
 73
     6
 40
3.5
 49
1.0
 49
-0.5
 49
1.0
 49
-0.5
 49
0.0
 49
-0.5
  0
LTYPE
  2
CENTER
 70
     0
  3
____ _ ____ _ ____ _ ____ _ ____ _ ____ _ ____ 
 72
    65
 73
     4
 40
2.0
 49
1.25
 49
-0.25
 49
0.25
 49
-0.25
  0
LTYPE
  2
CENTER3
 70
     0
  3
__ _ __ _ __ _ __ _ __ _ __ _ __ _ __ _ __ _ __
 72
    65
 73
     4
 40
0.5625
 49
0.375
 49
-0.0625
 49
0.0625
 49
-0.0625
  0
LTYPE
  2
CENTER4
 70
     0
  3
- --- - --- - --- - --- - --- - --- - --- - ---
 72
    65
 73
     4
 40
0.28125
 49
0.1875
 49
-0.03125
 49
0.03125
 49
-0.03125
  0
LTYPE
  2
CENTERX2
 70
     0
  3
________  __  ________  __  ________  __  _____
 72
    65
 73
     4
 40
4.0
 49
2.5
 49
-0.5
 49
0.5
 49
-0.5
  0
LTYPE
  2
DASHDOT
 70
     0
  3
__ . __ . __ . __ . __ . __ . __ . __ . __ . __
 72
    65
 73
     4
 40
1.0
 49
0.5
 49
-0.25
 49
0.0
 49
-0.25
  0
LTYPE
  2
DASHDOT2
 70
     0
  3
_._._._._._._._._._._._._._._._._._._._._._._._
 72
    65
 73
     4
 40
0.5
 49
0.25
 49
-0.125
 49
0.0
 49
-0.125
  0
LTYPE
  2
DASHDOTX2
 70
     0
  3
____  .  ____  .  ____  .  ____  .  ____  .  __
 72
    65
 73
     4
 40
2.0
 49
1.0
 49
-0.5
 49
0.0
 49
-0.5
  0
LTYPE
  2
DASHED
 70
     0
  3
__ __ __ __ __ __ __ __ __ __ __ __ __ __ __ __
 72
    65
 73
     2
 40
0.75
 49
0.5
 49
-0.25
  0
LTYPE
  2
DASHEDX2
 70
     0
  3
____  ____  ____  ____  ____  ____  ____  ____ 
 72
    65
 73
     2
 40
1.5
 49
1.0
 49
-0.5
  0
LTYPE
  2
DIVIDE
 70
     0
  3
____ . . ____ . . ____ . . ____ . . ____ . . __
 72
    65
 73
     6
 40
1.25
 49
0.5
 49
-0.25
 49
0.0
 49
-0.25
 49
0.0
 49
-0.25
  0
LTYPE
  2
DIVIDE2
 70
     0
  3
__..__..__..__..__..__..__..__..__..__..__..__.
 72
    65
 73
     6
 40
0.625
 49
0.25
 49
-0.125
 49
0.0
 49
-0.125
 49
0.0
 49
-0.125
  0
LTYPE
  2
DIVIDEX2
 70
     0
  3
________  .  .  ________  .  .  ________  .  . 
 72
    65
 73
     6
 40
2.5
 49
1.0
 49
-0.5
 49
0.0
 49
-0.5
 49
0.0
 49
-0.5
  0
LTYPE
  2
DOT
 70
     0
  3
. . . . . . . . . . . . . . . . . . . . . . . .
 72
    65
 73
     2
 40
0.25
 49
0.0
 49
-0.25
  0
LTYPE
  2
DOT2
 70
     0
  3
...............................................
 72
    65
 73
     2
 40
0.125
 49
0.0
 49
-0.125
  0
LTYPE
  2
DOTX2
 70
     0
  3
.  .  .  .  .  .  .  .  .  .  .  .  .  .  .  . 
 72
    65
 73
     2
 40
0.5
 49
0.0
 49
-0.5
  0
LTYPE
  2
HIDDEN
 70
     0
  3
___ ___ ___ ___ ___ ___ ___ ___ ___ ___ ___ ___
 72
    65
 73
     2
 40
0.375
 49
0.25
 49
-0.125
  0
LTYPE
  2
HIDDEN3
 70
     0
  3
_ _ _ _ _ _ _ _ _ _ _ _ _ _ _ _ _ _ _ _ _ _ _ _
 72
    65
 73
     2
 40
0.125
 49
0.0625
 49
-0.0625
  0
LTYPE
  2
HIDDEN4
 70
     0
  3
_ _ _ _ _ _ _ _ _ _ _ _ _ _ _ _ _ _ _ _ _ _ _ _
 72
    65
 73
     2
 40
0.0625
 49
0.03125
 49
-0.03125
  0
LTYPE
  2
HIDDENX2
 70
     0
  3
____  ____  ____  ____  ____  ____  ____  ____ 
 72
    65
 73
     2
 40
0.75
 49
0.5
 49
-0.25
  0
LTYPE
  2
PHANTOM
 70
     0
  3
______  __  __  ______  __  __  ______  __  __ 
 72
    65
 73
     6
 40
2.5
 49
1.25
 49
-0.25
 49
0.25
 49
-0.25
 49
0.25
 49
-0.25
  0
LTYPE
  2
PHANTOM3
 70
     0
  3
___ _ _ ___ _ _ ___ _ _ ___ _ _ ___ _ _ ___ _ _
 72
    65
 73
     6
 40
0.625
 49
0.3125
 49
-0.0625
 49
0.0625
 49
-0.0625
 49
0.0625
 49
-0.0625
  0
LTYPE
  2
PHANTOM4
 70
     0
  3
___ _ _ ___ _ _ ___ _ _ ___ _ _ ___ _ _ ___ _ _
 72
    65
 73
     6
 40
0.31225
 49
0.156
 49
-0.03125
 49
0.03125
 49
-0.03125
 49
0.03125
 49
-0.03125
  0
LTYPE
  2
PHANTOMX2
 70
     0
  3
____________    ____    ____    ____________   
 72
    65
 73
     6
 40
5.0
 49
2.5
 49
-0.5
 49
0.5
 49
-0.5
 49
0.5
 49
-0.5
  0
LTYPE
  2
1DASH
 70
     0
  3
_____ _ ______ _ ______ _ ______
 72
    65
 73
     4
 40
1.3
 49
0.75
 49
-0.25
 49
0.05
 49
-0.25
  0
LTYPE
  2
2DASHES
 70
     0
  3
____ _ _ _____ _ _ ____ _ _ ____
 72
    65
 73
     6
 40
1.7
 49
0.75
 49
-0.25
 49
0.1
 49
-0.25
 49
0.1
 49
-0.25
  0
LTYPE
  2
3DASHES
 70
     0
  3
_____ _ _ _ ______ _ _ _ ______ _ _ _ ______
 72
    65
 73
     8
 40
2.05
 49
0.75
 49
-0.25
 49
0.1
 49
-0.25
 49
0.1
 49
-0.25
 49
0.1
 49
-0.25
  0
LTYPE
  2
1DOT
 70
     0
  3
______ . ______ . ______ . ______
 72
    65
 73
     4
 40
1.25
 49
0.75
 49
-0.25
 49
0.0
 49
-0.25
  0
LTYPE
  2
2DOTS
 70
     0
  3
______ . . ______ . . ______ . . ______
 72
    65
 73
     6
 40
1.5
 49
0.75
 49
-0.25
 49
0.0
 49
-0.25
 49
0.0
 49
-0.25
  0
LTYPE
  2
3DOTS
 70
     0
  3
______ . . . ______ . . . ______ . . . ______
 72
    65
 73
     8
 40
1.75
 49
0.75
 49
-0.25
 49
0.0
 49
-0.25
 49
0.0
 49
-0.25
 49
0.0
 49
-0.25
  0
ENDTAB
  0
TABLE
  2
LAYER
 70
    19
  0
LAYER
  2
0
 70
    64
 62
     7
  6
CONTINUOUS
  0
LAYER
  2
CENTER
 70
    64
 62
     1
  6
CENTER2
  0
LAYER
  2
DIM01
 70
    64
 62
    30
  6
CONTINUOUS
  0
LAYER
  2
DIM02
 70
     0
 62
    40
  6
CONTINUOUS
  0
LAYER
  2
HATCH
 70
    64
 62
     5
  6
CONTINUOUS
  0
LAYER
  2
HIDDEN
 70
    64
 62
     3
  6
HIDDEN2
  0
LAYER
  2
CONSTRUCTION
 70
    64
 62
    30
  6
DASHED2
  0
LAYER
  2
OBJFINE
 70
     0
 62
     4
  6
CONTINUOUS
  0
LAYER
  2
OBJMEDIUM
 70
    64
 62
   230
  6
CONTINUOUS
  0
LAYER
  2
OBJHEAVY
 70
     0
 62
     2
  6
CONTINUOUS
  0
LAYER
  2
PARTLIST
 70
     0
 62
     9
  6
CONTINUOUS
  0
LAYER
  2
PHANTOM
 70
    64
 62
     6
  6
PHANTOM2
  0
LAYER
  2
QC
 70
     0
 62
    10
  6
CONTINUOUS
  0
LAYER
  2
SECTIONLINE
 70
     0
 62
    20
  6
PHANTOM2
  0
LAYER
  2
TEXT
 70
     0
 62
    90
  6
CONTINUOUS
  0
LAYER
  2
VIEWPORTS
 70
     0
 62
     9
  6
CONTINUOUS
  0
LAYER
  2
SHEET-TXT
 70
     0
 62
     7
  6
CONTINUOUS
  0
LAYER
  2
SHEET
 70
     0
 62
     7
  6
CONTINUOUS
  0
LAYER
  2
DEFPOINTS
 70
    64
 62
     7
  6
CONTINUOUS
  0
ENDTAB
  0
TABLE
  2
STYLE
 70
     2
  0
STYLE
  2
STANDARD
 70
    64
 40
0.0
 41
0.95
 50
0.0
 71
     0
 42
0.2
  3
F:\ACADWIN\FONTS\ROMANS.SHX
  4

  0
STYLE
  2
ACL
 70
    64
 40
0.0
 41
1.0
 50
0.0
 71
     0
 42
0.2
  3
geotol2
  4

  0
ENDTAB
  0
TABLE
  2
VIEW
 70
     0
  0
ENDTAB
  0
TABLE
  2
UCS
 70
     0
  0
ENDTAB
  0
TABLE
  2
APPID
 70
     1
  0
APPID
  2
ACAD
 70
    64
  0
ENDTAB
  0
TABLE
  2
DIMSTYLE
 70
     0
  0
ENDTAB
  0
ENDSEC
  0
SECTION
  2
BLOCKS
  0
BLOCK
  8
0
  2
CP100A
 70
     0
 10
0.0
 20
0.0
 30
0.0
  3
CP100A
  0
DIMENSION
  8
DIM01
  2
*D6
 10
5.570649
 20
5.856124
 30
0.0
 11
0.624933
 21
5.856124
 31
0.0
 12
-20.737127
 22
-8.571406
 32
0.0
 13
-4.320784
 23
4.0
 33
0.0
 14
5.570649
 24
0.0
 34
0.0
  0
DIMENSION
  8
DIM01
  2
*D5
 10
-5.501462
 20
-4.122481
 30
0.0
 11
-5.484828
 21
0.140747
 31
0.0
 12
-20.737127
 22
-8.571406
 32
0.0
 70
   128
  1
%%C8.25
 13
-4.151543
 23
4.116909
 33
0.0
 14
-4.170817
 24
-4.122481
 34
0.0
 50
90.0
  0
CIRCLE
  8
PHANTOM
 10
-1.578745
 20
2.88607
 30
0.0
 40
0.373655
  0
TEXT
  8
DIM01
 10
-1.591064
 20
4.299108
 30
0.0
 40
0.2
  1
t
  7
ACL
  0
INSERT
  8
CONSTRUCTION
  2
SPKRHOU
 10
-4.320784
 20
0.0
 30
0.0
  0
ENDBLK
  8
0
  0
BLOCK
  8
0
  2
*X1
 70
    65
 10
0.0
 20
0.0
 30
0.0
  3
*X
  0
LINE
  8
0
 62
     0
 10
23.560831
 20
11.20414
 30
0.0
 11
23.597723
 21
11.241032
 31
0.0
  0
LINE
  8
0
 62
     0
 10
23.511635
 20
11.207977
 30
0.0
 11
23.548854
 21
11.245196
 31
0.0
  0
LINE
  8
0
 62
     0
 10
23.462439
 20
11.211814
 30
0.0
 11
23.499658
 21
11.249033
 31
0.0
  0
LINE
  8
0
 62
     0
 10
23.413244
 20
11.215652
 30
0.0
 11
23.450462
 21
11.25287
 31
0.0
  0
LINE
  8
0
 62
     0
 10
23.364048
 20
11.219489
 30
0.0
 11
23.401266
 21
11.256707
 31
0.0
  0
LINE
  8
0
 62
     0
 10
23.314852
 20
11.223326
 30
0.0
 11
23.352071
 21
11.260545
 31
0.0
  0
LINE
  8
0
 62
     0
 10
23.265656
 20
11.227163
 30
0.0
 11
23.302875
 21
11.264382
 31
0.0
  0
LINE
  8
0
 62
     0
 10
23.216461
 20
11.231001
 30
0.0
 11
23.253679
 21
11.268219
 31
0.0
  0
LINE
  8
0
 62
     0
 10
23.167265
 20
11.234838
 30
0.0
 11
23.204483
 21
11.272056
 31
0.0
  0
LINE
  8
0
 62
     0
 10
23.118069
 20
11.238675
 30
0.0
 11
23.155288
 21
11.275894
 31
0.0
  0
LINE
  8
0
 62
     0
 10
23.068767
 20
11.242406
 30
0.0
 11
23.106092
 21
11.279731
 31
0.0
  0
LINE
  8
0
 62
     0
 10
23.018066
 20
11.244739
 30
0.0
 11
23.056348
 21
11.28302
 31
0.0
  0
LINE
  8
0
 62
     0
 10
22.967366
 20
11.247071
 30
0.0
 11
23.005647
 21
11.285352
 31
0.0
  0
LINE
  8
0
 62
     0
 10
22.916665
 20
11.249403
 30
0.0
 11
22.954946
 21
11.287684
 31
0.0
  0
LINE
  8
0
 62
     0
 10
22.865964
 20
11.251735
 30
0.0
 11
22.904246
 21
11.290017
 31
0.0
  0
LINE
  8
0
 62
     0
 10
22.815263
 20
11.254068
 30
0.0
 11
22.853545
 21
11.292349
 31
0.0
  0
LINE
  8
0
 62
     0
 10
22.764563
 20
11.2564
 30
0.0
 11
22.802844
 21
11.294681
 31
0.0
  0
LINE
  8
0
 62
     0
 10
22.713862
 20
11.258732
 30
0.0
 11
22.752143
 21
11.297013
 31
0.0
  0
LINE
  8
0
 62
     0
 10
22.663161
 20
11.261064
 30
0.0
 11
22.701442
 21
11.299346
 31
0.0
  0
LINE
  8
0
 62
     0
 10
22.61246
 20
11.263396
 30
0.0
 11
22.650742
 21
11.301678
 31
0.0
  0
LINE
  8
0
 62
     0
 10
22.561447
 20
11.265416
 30
0.0
 11
22.600041
 21
11.30401
 31
0.0
  0
LINE
  8
0
 62
     0
 10
22.509249
 20
11.266251
 30
0.0
 11
22.548624
 21
11.305626
 31
0.0
  0
LINE
  8
0
 62
     0
 10
22.457051
 20
11.267087
 30
0.0
 11
22.496426
 21
11.306462
 31
0.0
  0
LINE
  8
0
 62
     0
 10
22.404854
 20
11.267922
 30
0.0
 11
22.444229
 21
11.307297
 31
0.0
  0
LINE
  8
0
 62
     0
 10
22.352656
 20
11.268757
 30
0.0
 11
22.392031
 21
11.308132
 31
0.0
  0
LINE
  8
0
 62
     0
 10
22.300458
 20
11.269592
 30
0.0
 11
22.339833
 21
11.308967
 31
0.0
  0
LINE
  8
0
 62
     0
 10
22.24826
 20
11.270427
 30
0.0
 11
22.287635
 21
11.309802
 31
0.0
  0
LINE
  8
0
 62
     0
 10
22.196062
 20
11.271262
 30
0.0
 11
22.235437
 21
11.310637
 31
0.0
  0
LINE
  8
0
 62
     0
 10
22.143864
 20
11.272098
 30
0.0
 11
22.183239
 21
11.311473
 31
0.0
  0
LINE
  8
0
 62
     0
 10
22.091666
 20
11.272933
 30
0.0
 11
22.131042
 21
11.312308
 31
0.0
  0
LINE
  8
0
 62
     0
 10
22.039469
 20
11.273768
 30
0.0
 11
22.078844
 21
11.313143
 31
0.0
  0
LINE
  8
0
 62
     0
 10
21.987271
 20
11.274603
 30
0.0
 11
22.026646
 21
11.313978
 31
0.0
  0
LINE
  8
0
 62
     0
 10
21.935073
 20
11.275438
 30
0.0
 11
21.974448
 21
11.314813
 31
0.0
  0
LINE
  8
0
 62
     0
 10
21.882875
 20
11.276273
 30
0.0
 11
21.92225
 21
11.315648
 31
0.0
  0
LINE
  8
0
 62
     0
 10
21.830677
 20
11.277109
 30
0.0
 11
21.870052
 21
11.316484
 31
0.0
  0
LINE
  8
0
 62
     0
 10
21.778479
 20
11.277944
 30
0.0
 11
21.817855
 21
11.317319
 31
0.0
  0
LINE
  8
0
 62
     0
 10
21.726282
 20
11.278779
 30
0.0
 11
21.765657
 21
11.318154
 31
0.0
  0
LINE
  8
0
 62
     0
 10
21.674084
 20
11.279614
 30
0.0
 11
21.713459
 21
11.318989
 31
0.0
  0
LINE
  8
0
 62
     0
 10
21.621886
 20
11.280449
 30
0.0
 11
21.661261
 21
11.319824
 31
0.0
  0
LINE
  8
0
 62
     0
 10
21.569685
 20
11.281282
 30
0.0
 11
21.609063
 21
11.320659
 31
0.0
  0
LINE
  8
0
 62
     0
 10
21.517436
 20
11.282065
 30
0.0
 11
21.556849
 21
11.321479
 31
0.0
  0
LINE
  8
0
 62
     0
 10
21.465187
 20
11.282849
 30
0.0
 11
21.5046
 21
11.322263
 31
0.0
  0
LINE
  8
0
 62
     0
 10
21.412938
 20
11.283633
 30
0.0
 11
21.452351
 21
11.323046
 31
0.0
  0
LINE
  8
0
 62
     0
 10
21.360688
 20
11.284417
 30
0.0
 11
21.400102
 21
11.32383
 31
0.0
  0
LINE
  8
0
 62
     0
 10
21.308439
 20
11.2852
 30
0.0
 11
21.347852
 21
11.324614
 31
0.0
  0
LINE
  8
0
 62
     0
 10
21.25619
 20
11.285984
 30
0.0
 11
21.295603
 21
11.325397
 31
0.0
  0
LINE
  8
0
 62
     0
 10
21.203941
 20
11.286768
 30
0.0
 11
21.243354
 21
11.326181
 31
0.0
  0
LINE
  8
0
 62
     0
 10
21.151691
 20
11.287552
 30
0.0
 11
21.191105
 21
11.326965
 31
0.0
  0
LINE
  8
0
 62
     0
 10
21.099442
 20
11.288335
 30
0.0
 11
21.138855
 21
11.327749
 31
0.0
  0
LINE
  8
0
 62
     0
 10
21.046815
 20
11.288742
 30
0.0
 11
21.086606
 21
11.328532
 31
0.0
  0
LINE
  8
0
 62
     0
 10
20.993782
 20
11.288742
 30
0.0
 11
21.033782
 21
11.328742
 31
0.0
  0
LINE
  8
0
 62
     0
 10
20.940749
 20
11.288742
 30
0.0
 11
20.980749
 21
11.328742
 31
0.0
  0
LINE
  8
0
 62
     0
 10
20.887716
 20
11.288742
 30
0.0
 11
20.927716
 21
11.328742
 31
0.0
  0
LINE
  8
0
 62
     0
 10
20.834683
 20
11.288742
 30
0.0
 11
20.874683
 21
11.328742
 31
0.0
  0
LINE
  8
0
 62
     0
 10
20.78165
 20
11.288742
 30
0.0
 11
20.82165
 21
11.328742
 31
0.0
  0
LINE
  8
0
 62
     0
 10
20.669682
 20
11.229806
 30
0.0
 11
20.768617
 21
11.328742
 31
0.0
  0
LINE
  8
0
 62
     0
 10
20.616843
 20
11.23
 30
0.0
 11
20.646063
 21
11.259221
 31
0.0
  0
LINE
  8
0
 62
     0
 10
20.646063
 20
11.259221
 30
0.0
 11
20.654539
 21
11.267697
 31
0.0
  0
LINE
  8
0
 62
     0
 10
20.579427
 20
11.245617
 30
0.0
 11
20.608785
 21
11.274975
 31
0.0
  0
LINE
  8
0
 62
     0
 10
20.551236
 20
11.27046
 30
0.0
 11
20.57971
 21
11.298934
 31
0.0
  0
LINE
  8
0
 62
     0
 10
20.516485
 20
11.288742
 30
0.0
 11
20.556485
 21
11.328742
 31
0.0
  0
LINE
  8
0
 62
     0
 10
20.463452
 20
11.288742
 30
0.0
 11
20.503452
 21
11.328742
 31
0.0
  0
LINE
  8
0
 62
     0
 10
20.410419
 20
11.288742
 30
0.0
 11
20.450419
 21
11.328742
 31
0.0
  0
LINE
  8
0
 62
     0
 10
20.357386
 20
11.288742
 30
0.0
 11
20.397386
 21
11.328742
 31
0.0
  0
LINE
  8
0
 62
     0
 10
20.304353
 20
11.288742
 30
0.0
 11
20.344353
 21
11.328742
 31
0.0
  0
LINE
  8
0
 62
     0
 10
20.25132
 20
11.288742
 30
0.0
 11
20.29132
 21
11.328742
 31
0.0
  0
LINE
  8
0
 62
     0
 10
20.198287
 20
11.288742
 30
0.0
 11
20.238287
 21
11.328742
 31
0.0
  0
LINE
  8
0
 62
     0
 10
20.145254
 20
11.288742
 30
0.0
 11
20.185254
 21
11.328742
 31
0.0
  0
LINE
  8
0
 62
     0
 10
20.092221
 20
11.288742
 30
0.0
 11
20.132221
 21
11.328742
 31
0.0
  0
LINE
  8
0
 62
     0
 10
20.039188
 20
11.288742
 30
0.0
 11
20.079188
 21
11.328742
 31
0.0
  0
LINE
  8
0
 62
     0
 10
19.986155
 20
11.288742
 30
0.0
 11
20.026155
 21
11.328742
 31
0.0
  0
LINE
  8
0
 62
     0
 10
19.933122
 20
11.288742
 30
0.0
 11
19.973122
 21
11.328742
 31
0.0
  0
LINE
  8
0
 62
     0
 10
19.880089
 20
11.288742
 30
0.0
 11
19.920089
 21
11.328742
 31
0.0
  0
LINE
  8
0
 62
     0
 10
19.827234
 20
11.288919
 30
0.0
 11
19.867056
 21
11.328742
 31
0.0
  0
LINE
  8
0
 62
     0
 10
19.775457
 20
11.290175
 30
0.0
 11
19.814406
 21
11.329125
 31
0.0
  0
LINE
  8
0
 62
     0
 10
19.724819
 20
11.29257
 30
0.0
 11
19.762943
 21
11.330695
 31
0.0
  0
LINE
  8
0
 62
     0
 10
19.675251
 20
11.296036
 30
0.0
 11
19.712619
 21
11.333404
 31
0.0
  0
LINE
  8
0
 62
     0
 10
19.626693
 20
11.300511
 30
0.0
 11
19.663366
 21
11.337184
 31
0.0
  0
LINE
  8
0
 62
     0
 10
19.579092
 20
11.305942
 30
0.0
 11
19.615124
 21
11.341975
 31
0.0
  0
LINE
  8
0
 62
     0
 10
19.532398
 20
11.312282
 30
0.0
 11
19.567838
 21
11.347722
 31
0.0
  0
LINE
  8
0
 62
     0
 10
19.48657
 20
11.319487
 30
0.0
 11
19.521462
 21
11.354378
 31
0.0
  0
LINE
  8
0
 62
     0
 10
19.441569
 20
11.327519
 30
0.0
 11
19.475951
 21
11.361901
 31
0.0
  0
LINE
  8
0
 62
     0
 10
19.39736
 20
11.336343
 30
0.0
 11
19.431269
 21
11.370251
 31
0.0
  0
LINE
  8
0
 62
     0
 10
19.353912
 20
11.345927
 30
0.0
 11
19.387379
 21
11.379395
 31
0.0
  0
LINE
  8
0
 62
     0
 10
19.311195
 20
11.356244
 30
0.0
 11
19.344251
 21
11.3893
 31
0.0
  0
LINE
  8
0
 62
     0
 10
19.269185
 20
11.367266
 30
0.0
 11
19.301857
 21
11.399939
 31
0.0
  0
LINE
  8
0
 62
     0
 10
19.227856
 20
11.378971
 30
0.0
 11
19.26017
 21
11.411285
 31
0.0
  0
LINE
  8
0
 62
     0
 10
19.187189
 20
11.391336
 30
0.0
 11
19.219167
 21
11.423315
 31
0.0
  0
LINE
  8
0
 62
     0
 10
19.147162
 20
11.404342
 30
0.0
 11
19.178827
 21
11.436008
 31
0.0
  0
LINE
  8
0
 62
     0
 10
19.107757
 20
11.417971
 30
0.0
 11
19.139129
 21
11.449343
 31
0.0
  0
LINE
  8
0
 62
     0
 10
19.068958
 20
11.432205
 30
0.0
 11
19.100055
 21
11.463302
 31
0.0
  0
LINE
  8
0
 62
     0
 10
19.030749
 20
11.447029
 30
0.0
 11
19.06159
 21
11.477869
 31
0.0
  0
LINE
  8
0
 62
     0
 10
18.993116
 20
11.462429
 30
0.0
 11
19.023716
 21
11.493029
 31
0.0
  0
LINE
  8
0
 62
     0
 10
18.956046
 20
11.478392
 30
0.0
 11
18.986422
 21
11.508768
 31
0.0
  0
LINE
  8
0
 62
     0
 10
18.919527
 20
11.494906
 30
0.0
 11
18.949693
 21
11.525072
 31
0.0
  0
LINE
  8
0
 62
     0
 10
18.883548
 20
11.51196
 30
0.0
 11
18.913518
 21
11.54193
 31
0.0
  0
LINE
  8
0
 62
     0
 10
18.848098
 20
11.529543
 30
0.0
 11
18.877886
 21
11.55933
 31
0.0
  0
LINE
  8
0
 62
     0
 10
18.813168
 20
11.547646
 30
0.0
 11
18.842786
 21
11.577264
 31
0.0
  0
LINE
  8
0
 62
     0
 10
18.77875
 20
11.566261
 30
0.0
 11
18.80821
 21
11.595721
 31
0.0
  0
LINE
  8
0
 62
     0
 10
18.744835
 20
11.585379
 30
0.0
 11
18.774149
 21
11.614693
 31
0.0
  0
LINE
  8
0
 62
     0
 10
18.711416
 20
11.604993
 30
0.0
 11
18.740595
 21
11.634172
 31
0.0
  0
LINE
  8
0
 62
     0
 10
18.678487
 20
11.625097
 30
0.0
 11
18.707541
 21
11.654151
 31
0.0
  0
LINE
  8
0
 62
     0
 10
18.646041
 20
11.645684
 30
0.0
 11
18.674981
 21
11.674624
 31
0.0
  0
LINE
  8
0
 62
     0
 10
18.614073
 20
11.666748
 30
0.0
 11
18.642909
 21
11.695585
 31
0.0
  0
LINE
  8
0
 62
     0
 10
18.582577
 20
11.688286
 30
0.0
 11
18.611319
 21
11.717028
 31
0.0
  0
LINE
  8
0
 62
     0
 10
18.551549
 20
11.710291
 30
0.0
 11
18.580206
 21
11.738948
 31
0.0
  0
LINE
  8
0
 62
     0
 10
18.520986
 20
11.732761
 30
0.0
 11
18.549567
 21
11.761342
 31
0.0
  0
LINE
  8
0
 62
     0
 10
18.490883
 20
11.755691
 30
0.0
 11
18.519397
 21
11.784205
 31
0.0
  0
LINE
  8
0
 62
     0
 10
18.461238
 20
11.779079
 30
0.0
 11
18.489694
 21
11.807535
 31
0.0
  0
LINE
  8
0
 62
     0
 10
18.432047
 20
11.802921
 30
0.0
 11
18.460453
 21
11.831327
 31
0.0
  0
LINE
  8
0
 62
     0
 10
18.403308
 20
11.827215
 30
0.0
 11
18.431674
 21
11.855581
 31
0.0
  0
LINE
  8
0
 62
     0
 10
18.37502
 20
11.85196
 30
0.0
 11
18.403353
 21
11.880293
 31
0.0
  0
LINE
  8
0
 62
     0
 10
18.34718
 20
11.877153
 30
0.0
 11
18.375489
 21
11.905462
 31
0.0
  0
LINE
  8
0
 62
     0
 10
18.319788
 20
11.902794
 30
0.0
 11
18.348081
 21
11.931087
 31
0.0
  0
LINE
  8
0
 62
     0
 10
18.292843
 20
11.928882
 30
0.0
 11
18.321128
 21
11.957167
 31
0.0
  0
LINE
  8
0
 62
     0
 10
18.266345
 20
11.955417
 30
0.0
 11
18.29463
 21
11.983702
 31
0.0
  0
LINE
  8
0
 62
     0
 10
18.240293
 20
11.982398
 30
0.0
 11
18.268587
 21
12.010692
 31
0.0
  0
LINE
  8
0
 62
     0
 10
18.214688
 20
12.009826
 30
0.0
 11
18.242999
 21
12.038137
 31
0.0
  0
LINE
  8
0
 62
     0
 10
18.189531
 20
12.037702
 30
0.0
 11
18.217867
 21
12.066038
 31
0.0
  0
LINE
  8
0
 62
     0
 10
18.164823
 20
12.066027
 30
0.0
 11
18.193192
 21
12.094396
 31
0.0
  0
LINE
  8
0
 62
     0
 10
18.140566
 20
12.094803
 30
0.0
 11
18.168976
 21
12.123213
 31
0.0
  0
LINE
  8
0
 62
     0
 10
18.116761
 20
12.124031
 30
0.0
 11
18.145221
 21
12.152491
 31
0.0
  0
LINE
  8
0
 62
     0
 10
18.09341
 20
12.153713
 30
0.0
 11
18.12193
 21
12.182233
 31
0.0
  0
LINE
  8
0
 62
     0
 10
18.070517
 20
12.183853
 30
0.0
 11
18.099104
 21
12.21244
 31
0.0
  0
LINE
  8
0
 62
     0
 10
18.048085
 20
12.214454
 30
0.0
 11
18.076749
 21
12.243118
 31
0.0
  0
LINE
  8
0
 62
     0
 10
18.026118
 20
12.24552
 30
0.0
 11
18.054867
 21
12.274269
 31
0.0
  0
LINE
  8
0
 62
     0
 10
18.004619
 20
12.277054
 30
0.0
 11
18.033463
 21
12.305898
 31
0.0
  0
LINE
  8
0
 62
     0
 10
18.098574
 20
12.371009
 30
0.0
 11
18.165388
 21
12.437823
 31
0.0
  0
LINE
  8
0
 62
     0
 10
17.983593
 20
12.309061
 30
0.0
 11
18.012542
 21
12.33801
 31
0.0
  0
LINE
  8
0
 62
     0
 10
18.126331
 20
12.451799
 30
0.0
 11
18.161662
 21
12.48713
 31
0.0
  0
LINE
  8
0
 62
     0
 10
17.963045
 20
12.341546
 30
0.0
 11
17.992109
 21
12.37061
 31
0.0
  0
LINE
  8
0
 62
     0
 10
18.11578
 20
12.494281
 30
0.0
 11
18.144838
 21
12.52334
 31
0.0
  0
LINE
  8
0
 62
     0
 10
17.942981
 20
12.374515
 30
0.0
 11
17.97217
 21
12.403704
 31
0.0
  0
LINE
  8
0
 62
     0
 10
18.090822
 20
12.522356
 30
0.0
 11
18.119367
 21
12.550901
 31
0.0
  0
LINE
  8
0
 62
     0
 10
17.924434
 20
12.409001
 30
0.0
 11
17.957131
 21
12.441698
 31
0.0
  0
LINE
  8
0
 62
     0
 10
18.052887
 20
12.537454
 30
0.0
 11
18.085584
 21
12.570151
 31
0.0
  0
LINE
  8
0
 62
     0
 10
17.916345
 20
12.453945
 30
0.0
 11
18.04064
 21
12.57824
 31
0.0
  0
LINE
  8
0
 62
     0
 10
23.609475
 20
11.199751
 30
0.0
 11
23.6462
 21
11.236476
 31
0.0
  0
LINE
  8
0
 62
     0
 10
23.657952
 20
11.195195
 30
0.0
 11
23.694676
 21
11.231919
 31
0.0
  0
LINE
  8
0
 62
     0
 10
23.706428
 20
11.190638
 30
0.0
 11
23.743152
 21
11.227362
 31
0.0
  0
LINE
  8
0
 62
     0
 10
23.754904
 20
11.186081
 30
0.0
 11
23.791628
 21
11.222805
 31
0.0
  0
LINE
  8
0
 62
     0
 10
23.80338
 20
11.181524
 30
0.0
 11
23.840105
 21
11.218249
 31
0.0
  0
LINE
  8
0
 62
     0
 10
23.851857
 20
11.176968
 30
0.0
 11
23.888581
 21
11.213692
 31
0.0
  0
LINE
  8
0
 62
     0
 10
23.900333
 20
11.172411
 30
0.0
 11
23.937057
 21
11.209135
 31
0.0
  0
LINE
  8
0
 62
     0
 10
23.948809
 20
11.167854
 30
0.0
 11
23.985533
 21
11.204578
 31
0.0
  0
LINE
  8
0
 62
     0
 10
23.997285
 20
11.163297
 30
0.0
 11
24.03401
 21
11.200022
 31
0.0
  0
LINE
  8
0
 62
     0
 10
24.045762
 20
11.158741
 30
0.0
 11
24.082017
 21
11.194996
 31
0.0
  0
LINE
  8
0
 62
     0
 10
24.093064
 20
11.153009
 30
0.0
 11
24.128084
 21
11.18803
 31
0.0
  0
LINE
  8
0
 62
     0
 10
24.13894
 20
11.145853
 30
0.0
 11
24.17396
 21
11.180873
 31
0.0
  0
LINE
  8
0
 62
     0
 10
24.184816
 20
11.138696
 30
0.0
 11
24.219837
 21
11.173717
 31
0.0
  0
LINE
  8
0
 62
     0
 10
24.230692
 20
11.131539
 30
0.0
 11
24.265713
 21
11.16656
 31
0.0
  0
LINE
  8
0
 62
     0
 10
24.276569
 20
11.124383
 30
0.0
 11
24.311589
 21
11.159403
 31
0.0
  0
LINE
  8
0
 62
     0
 10
24.322445
 20
11.117226
 30
0.0
 11
24.357466
 21
11.152247
 31
0.0
  0
LINE
  8
0
 62
     0
 10
24.368321
 20
11.110069
 30
0.0
 11
24.403342
 21
11.14509
 31
0.0
  0
LINE
  8
0
 62
     0
 10
24.414198
 20
11.102913
 30
0.0
 11
24.449218
 21
11.137933
 31
0.0
  0
LINE
  8
0
 62
     0
 10
24.460074
 20
11.095756
 30
0.0
 11
24.495095
 21
11.130776
 31
0.0
  0
LINE
  8
0
 62
     0
 10
24.50595
 20
11.088599
 30
0.0
 11
24.540971
 21
11.12362
 31
0.0
  0
LINE
  8
0
 62
     0
 10
24.551827
 20
11.081442
 30
0.0
 11
24.586323
 21
11.115939
 31
0.0
  0
LINE
  8
0
 62
     0
 10
24.596373
 20
11.072955
 30
0.0
 11
24.629943
 21
11.106526
 31
0.0
  0
LINE
  8
0
 62
     0
 10
24.639842
 20
11.063392
 30
0.0
 11
24.673413
 21
11.096963
 31
0.0
  0
LINE
  8
0
 62
     0
 10
24.683312
 20
11.053829
 30
0.0
 11
24.716883
 21
11.0874
 31
0.0
  0
LINE
  8
0
 62
     0
 10
24.726782
 20
11.044265
 30
0.0
 11
24.760353
 21
11.077836
 31
0.0
  0
LINE
  8
0
 62
     0
 10
24.770251
 20
11.034702
 30
0.0
 11
24.803822
 21
11.068273
 31
0.0
  0
LINE
  8
0
 62
     0
 10
24.813721
 20
11.025139
 30
0.0
 11
24.847292
 21
11.05871
 31
0.0
  0
LINE
  8
0
 62
     0
 10
24.857191
 20
11.015575
 30
0.0
 11
24.890762
 21
11.049146
 31
0.0
  0
LINE
  8
0
 62
     0
 10
24.90066
 20
11.006012
 30
0.0
 11
24.934231
 21
11.039583
 31
0.0
  0
LINE
  8
0
 62
     0
 10
24.94413
 20
10.996449
 30
0.0
 11
24.977701
 21
11.03002
 31
0.0
  0
LINE
  8
0
 62
     0
 10
24.9876
 20
10.986885
 30
0.0
 11
25.021171
 21
11.020456
 31
0.0
  0
LINE
  8
0
 62
     0
 10
25.031069
 20
10.977322
 30
0.0
 11
25.064535
 21
11.010787
 31
0.0
  0
LINE
  8
0
 62
     0
 10
25.074385
 20
10.967605
 30
0.0
 11
25.106293
 21
10.999513
 31
0.0
  0
LINE
  8
0
 62
     0
 10
25.114807
 20
10.954993
 30
0.0
 11
25.146744
 21
10.98693
 31
0.0
  0
LINE
  8
0
 62
     0
 10
25.155228
 20
10.942382
 30
0.0
 11
25.187165
 21
10.974319
 31
0.0
  0
LINE
  8
0
 62
     0
 10
25.19565
 20
10.92977
 30
0.0
 11
25.227587
 21
10.961707
 31
0.0
  0
LINE
  8
0
 62
     0
 10
25.236071
 20
10.917159
 30
0.0
 11
25.268008
 21
10.949096
 31
0.0
  0
LINE
  8
0
 62
     0
 10
25.276493
 20
10.904547
 30
0.0
 11
25.30843
 21
10.936484
 31
0.0
  0
LINE
  8
0
 62
     0
 10
25.316914
 20
10.891936
 30
0.0
 11
25.348851
 21
10.923873
 31
0.0
  0
LINE
  8
0
 62
     0
 10
25.357336
 20
10.879324
 30
0.0
 11
25.389273
 21
10.911261
 31
0.0
  0
LINE
  8
0
 62
     0
 10
25.397757
 20
10.866713
 30
0.0
 11
25.429694
 21
10.89865
 31
0.0
  0
LINE
  8
0
 62
     0
 10
25.438179
 20
10.854101
 30
0.0
 11
25.470116
 21
10.886038
 31
0.0
  0
LINE
  8
0
 62
     0
 10
25.4786
 20
10.84149
 30
0.0
 11
25.510537
 21
10.873427
 31
0.0
  0
LINE
  8
0
 62
     0
 10
25.519022
 20
10.828878
 30
0.0
 11
25.550959
 21
10.860815
 31
0.0
  0
LINE
  8
0
 62
     0
 10
25.559443
 20
10.816267
 30
0.0
 11
25.590472
 21
10.847296
 31
0.0
  0
LINE
  8
0
 62
     0
 10
25.597736
 20
10.801526
 30
0.0
 11
25.628267
 21
10.832058
 31
0.0
  0
LINE
  8
0
 62
     0
 10
25.63503
 20
10.785788
 30
0.0
 11
25.665562
 21
10.816319
 31
0.0
  0
LINE
  8
0
 62
     0
 10
25.672325
 20
10.770049
 30
0.0
 11
25.702856
 21
10.800581
 31
0.0
  0
LINE
  8
0
 62
     0
 10
25.70962
 20
10.754311
 30
0.0
 11
25.740151
 21
10.784843
 31
0.0
  0
LINE
  8
0
 62
     0
 10
25.746914
 20
10.738573
 30
0.0
 11
25.777446
 21
10.769104
 31
0.0
  0
LINE
  8
0
 62
     0
 10
25.784209
 20
10.722834
 30
0.0
 11
25.81474
 21
10.753366
 31
0.0
  0
LINE
  8
0
 62
     0
 10
25.821504
 20
10.707096
 30
0.0
 11
25.852035
 21
10.737628
 31
0.0
  0
LINE
  8
0
 62
     0
 10
25.858798
 20
10.691358
 30
0.0
 11
25.88933
 21
10.721889
 31
0.0
  0
LINE
  8
0
 62
     0
 10
25.896093
 20
10.675619
 30
0.0
 11
25.926624
 21
10.706151
 31
0.0
  0
LINE
  8
0
 62
     0
 10
25.933388
 20
10.659881
 30
0.0
 11
25.963919
 21
10.690413
 31
0.0
  0
LINE
  8
0
 62
     0
 10
25.970682
 20
10.644143
 30
0.0
 11
26.001214
 21
10.674674
 31
0.0
  0
LINE
  8
0
 62
     0
 10
26.007977
 20
10.628404
 30
0.0
 11
26.038508
 21
10.658936
 31
0.0
  0
LINE
  8
0
 62
     0
 10
26.045272
 20
10.612666
 30
0.0
 11
26.075547
 21
10.642942
 31
0.0
  0
LINE
  8
0
 62
     0
 10
26.081746
 20
10.596108
 30
0.0
 11
26.111138
 21
10.6255
 31
0.0
  0
LINE
  8
0
 62
     0
 10
26.11605
 20
10.577378
 30
0.0
 11
26.145528
 21
10.606857
 31
0.0
  0
LINE
  8
0
 62
     0
 10
26.150353
 20
10.558648
 30
0.0
 11
26.179832
 21
10.588127
 31
0.0
  0
LINE
  8
0
 62
     0
 10
26.184656
 20
10.539919
 30
0.0
 11
26.214135
 21
10.569397
 31
0.0
  0
LINE
  8
0
 62
     0
 10
26.21896
 20
10.521189
 30
0.0
 11
26.248438
 21
10.550668
 31
0.0
  0
LINE
  8
0
 62
     0
 10
26.253263
 20
10.502459
 30
0.0
 11
26.282742
 21
10.531938
 31
0.0
  0
LINE
  8
0
 62
     0
 10
26.287566
 20
10.48373
 30
0.0
 11
26.317045
 21
10.513208
 31
0.0
  0
LINE
  8
0
 62
     0
 10
26.32187
 20
10.465
 30
0.0
 11
26.351348
 21
10.494479
 31
0.0
  0
LINE
  8
0
 62
     0
 10
26.356173
 20
10.446271
 30
0.0
 11
26.385652
 21
10.475749
 31
0.0
  0
LINE
  8
0
 62
     0
 10
26.390477
 20
10.427541
 30
0.0
 11
26.419955
 21
10.45702
 31
0.0
  0
LINE
  8
0
 62
     0
 10
26.42478
 20
10.408811
 30
0.0
 11
26.454259
 21
10.43829
 31
0.0
  0
LINE
  8
0
 62
     0
 10
26.459083
 20
10.390082
 30
0.0
 11
26.488562
 21
10.41956
 31
0.0
  0
LINE
  8
0
 62
     0
 10
26.493387
 20
10.371352
 30
0.0
 11
26.522865
 21
10.400831
 31
0.0
  0
LINE
  8
0
 62
     0
 10
26.52769
 20
10.352622
 30
0.0
 11
26.556989
 21
10.381921
 31
0.0
  0
LINE
  8
0
 62
     0
 10
26.561993
 20
10.333893
 30
0.0
 11
26.589838
 21
10.361738
 31
0.0
  0
LINE
  8
0
 62
     0
 10
26.593124
 20
10.311991
 30
0.0
 11
26.621271
 21
10.340137
 31
0.0
  0
LINE
  8
0
 62
     0
 10
26.622885
 20
10.288718
 30
0.0
 11
26.65138
 21
10.317213
 31
0.0
  0
LINE
  8
0
 62
     0
 10
26.652645
 20
10.265446
 30
0.0
 11
26.68114
 21
10.293941
 31
0.0
  0
LINE
  8
0
 62
     0
 10
26.682406
 20
10.242173
 30
0.0
 11
26.710901
 21
10.270668
 31
0.0
  0
LINE
  8
0
 62
     0
 10
26.712166
 20
10.2189
 30
0.0
 11
26.740661
 21
10.247395
 31
0.0
  0
LINE
  8
0
 62
     0
 10
26.741926
 20
10.195628
 30
0.0
 11
26.770421
 21
10.224123
 31
0.0
  0
LINE
  8
0
 62
     0
 10
26.771687
 20
10.172355
 30
0.0
 11
26.800182
 21
10.20085
 31
0.0
  0
LINE
  8
0
 62
     0
 10
26.801447
 20
10.149082
 30
0.0
 11
26.829942
 21
10.177578
 31
0.0
  0
LINE
  8
0
 62
     0
 10
26.831207
 20
10.12581
 30
0.0
 11
26.859703
 21
10.154305
 31
0.0
  0
LINE
  8
0
 62
     0
 10
26.860968
 20
10.102537
 30
0.0
 11
26.889463
 21
10.131032
 31
0.0
  0
LINE
  8
0
 62
     0
 10
26.890728
 20
10.079265
 30
0.0
 11
26.919223
 21
10.10776
 31
0.0
  0
LINE
  8
0
 62
     0
 10
26.920489
 20
10.055992
 30
0.0
 11
26.948984
 21
10.084487
 31
0.0
  0
LINE
  8
0
 62
     0
 10
26.950249
 20
10.032719
 30
0.0
 11
26.978744
 21
10.061214
 31
0.0
  0
LINE
  8
0
 62
     0
 10
26.980009
 20
10.009447
 30
0.0
 11
27.008505
 21
10.037942
 31
0.0
  0
LINE
  8
0
 62
     0
 10
27.009692
 20
9.986097
 30
0.0
 11
27.038188
 21
10.014592
 31
0.0
  0
LINE
  8
0
 62
     0
 10
27.038325
 20
9.961696
 30
0.0
 11
27.066821
 21
9.990192
 31
0.0
  0
LINE
  8
0
 62
     0
 10
27.065624
 20
9.935963
 30
0.0
 11
27.094121
 21
9.96446
 31
0.0
  0
LINE
  8
0
 62
     0
 10
27.091597
 20
9.908902
 30
0.0
 11
27.120095
 21
9.937401
 31
0.0
  0
LINE
  8
0
 62
     0
 10
27.116239
 20
9.880512
 30
0.0
 11
27.144738
 21
9.909011
 31
0.0
  0
LINE
  8
0
 62
     0
 10
27.139678
 20
9.850918
 30
0.0
 11
27.168178
 21
9.879417
 31
0.0
  0
LINE
  8
0
 62
     0
 10
27.162918
 20
9.821124
 30
0.0
 11
27.191418
 21
9.849624
 31
0.0
  0
LINE
  8
0
 62
     0
 10
27.186158
 20
9.791331
 30
0.0
 11
27.214657
 21
9.819831
 31
0.0
  0
LINE
  8
0
 62
     0
 10
27.209398
 20
9.761538
 30
0.0
 11
27.237897
 21
9.790037
 31
0.0
  0
LINE
  8
0
 62
     0
 10
27.232637
 20
9.731744
 30
0.0
 11
27.261137
 21
9.760244
 31
0.0
  0
LINE
  8
0
 62
     0
 10
27.255877
 20
9.701951
 30
0.0
 11
27.284376
 21
9.730451
 31
0.0
  0
LINE
  8
0
 62
     0
 10
27.279117
 20
9.672158
 30
0.0
 11
27.307616
 21
9.700657
 31
0.0
  0
LINE
  8
0
 62
     0
 10
27.302356
 20
9.642365
 30
0.0
 11
27.330856
 21
9.670864
 31
0.0
  0
LINE
  8
0
 62
     0
 10
27.325596
 20
9.612571
 30
0.0
 11
27.354096
 21
9.641071
 31
0.0
  0
LINE
  8
0
 62
     0
 10
27.348836
 20
9.582778
 30
0.0
 11
27.377335
 21
9.611277
 31
0.0
  0
LINE
  8
0
 62
     0
 10
27.372076
 20
9.552985
 30
0.0
 11
27.400575
 21
9.581484
 31
0.0
  0
LINE
  8
0
 62
     0
 10
27.395315
 20
9.523191
 30
0.0
 11
27.423815
 21
9.551691
 31
0.0
  0
LINE
  8
0
 62
     0
 10
27.418555
 20
9.493398
 30
0.0
 11
27.447054
 21
9.521897
 31
0.0
  0
LINE
  8
0
 62
     0
 10
27.441795
 20
9.463605
 30
0.0
 11
27.470294
 21
9.492104
 31
0.0
  0
LINE
  8
0
 62
     0
 10
27.465034
 20
9.433811
 30
0.0
 11
27.493534
 21
9.462311
 31
0.0
  0
LINE
  8
0
 62
     0
 10
27.48811
 20
9.403854
 30
0.0
 11
27.51676
 21
9.432504
 31
0.0
  0
LINE
  8
0
 62
     0
 10
27.509988
 20
9.372699
 30
0.0
 11
27.539122
 21
9.401833
 31
0.0
  0
LINE
  8
0
 62
     0
 10
27.530459
 20
9.340137
 30
0.0
 11
27.56009
 21
9.369769
 31
0.0
  0
LINE
  8
0
 62
     0
 10
27.549471
 20
9.306116
 30
0.0
 11
27.579619
 21
9.336265
 31
0.0
  0
LINE
  8
0
 62
     0
 10
27.566958
 20
9.27057
 30
0.0
 11
27.597649
 21
9.301261
 31
0.0
  0
LINE
  8
0
 62
     0
 10
27.582836
 20
9.233415
 30
0.0
 11
27.614101
 21
9.26468
 31
0.0
  0
LINE
  8
0
 62
     0
 10
27.596995
 20
9.194541
 30
0.0
 11
27.628876
 21
9.226422
 31
0.0
  0
LINE
  8
0
 62
     0
 10
27.609299
 20
9.153812
 30
0.0
 11
27.641847
 21
9.18636
 31
0.0
  0
LINE
  8
0
 62
     0
 10
27.620271
 20
9.111751
 30
0.0
 11
27.653076
 21
9.144556
 31
0.0
  0
LINE
  8
0
 62
     0
 10
27.631207
 20
9.069654
 30
0.0
 11
27.664013
 21
9.10246
 31
0.0
  0
LINE
  8
0
 62
     0
 10
27.642144
 20
9.027557
 30
0.0
 11
27.674949
 21
9.060363
 31
0.0
  0
LINE
  8
0
 62
     0
 10
27.65308
 20
8.985461
 30
0.0
 11
27.685885
 21
9.018266
 31
0.0
  0
LINE
  8
0
 62
     0
 10
27.664016
 20
8.943364
 30
0.0
 11
27.696821
 21
8.976169
 31
0.0
  0
LINE
  8
0
 62
     0
 10
27.674952
 20
8.901267
 30
0.0
 11
27.707757
 21
8.934072
 31
0.0
  0
LINE
  8
0
 62
     0
 10
27.685888
 20
8.85917
 30
0.0
 11
27.718694
 21
8.891976
 31
0.0
  0
LINE
  8
0
 62
     0
 10
27.696824
 20
8.817073
 30
0.0
 11
27.72963
 21
8.849879
 31
0.0
  0
LINE
  8
0
 62
     0
 10
27.707761
 20
8.774977
 30
0.0
 11
27.740566
 21
8.807782
 31
0.0
  0
LINE
  8
0
 62
     0
 10
27.718697
 20
8.73288
 30
0.0
 11
27.751502
 21
8.765685
 31
0.0
  0
LINE
  8
0
 62
     0
 10
27.729633
 20
8.690783
 30
0.0
 11
27.762438
 21
8.723588
 31
0.0
  0
LINE
  8
0
 62
     0
 10
27.740569
 20
8.648686
 30
0.0
 11
27.773375
 21
8.681491
 31
0.0
  0
LINE
  8
0
 62
     0
 10
27.750759
 20
8.605843
 30
0.0
 11
27.784307
 21
8.639391
 31
0.0
  0
LINE
  8
0
 62
     0
 10
27.791191
 20
8.593242
 30
0.0
 11
27.794045
 21
8.596096
 31
0.0
  0
ENDBLK
  8
0
  0
BLOCK
  8
0
  2
*X2
 70
    65
 10
0.0
 20
0.0
 30
0.0
  3
*X
  0
LINE
  8
0
 62
     0
 10
24.433758
 20
5.766139
 30
0.0
 11
24.458563
 21
5.790944
 31
0.0
  0
LINE
  8
0
 62
     0
 10
24.370922
 20
5.756336
 30
0.0
 11
24.418889
 21
5.804303
 31
0.0
  0
LINE
  8
0
 62
     0
 10
24.308087
 20
5.746534
 30
0.0
 11
24.356054
 21
5.794501
 31
0.0
  0
LINE
  8
0
 62
     0
 10
24.245252
 20
5.736732
 30
0.0
 11
24.293218
 21
5.784698
 31
0.0
  0
LINE
  8
0
 62
     0
 10
24.182417
 20
5.72693
 30
0.0
 11
24.230383
 21
5.774896
 31
0.0
  0
LINE
  8
0
 62
     0
 10
24.119581
 20
5.717127
 30
0.0
 11
24.167548
 21
5.765094
 31
0.0
  0
LINE
  8
0
 62
     0
 10
24.058163
 20
5.708742
 30
0.0
 11
24.104712
 21
5.755292
 31
0.0
  0
LINE
  8
0
 62
     0
 10
23.999617
 20
5.703229
 30
0.0
 11
24.043962
 21
5.747574
 31
0.0
  0
LINE
  8
0
 62
     0
 10
23.941082
 20
5.697727
 30
0.0
 11
23.985427
 21
5.742072
 31
0.0
  0
LINE
  8
0
 62
     0
 10
23.882547
 20
5.692225
 30
0.0
 11
23.926891
 21
5.736569
 31
0.0
  0
LINE
  8
0
 62
     0
 10
23.824011
 20
5.686722
 30
0.0
 11
23.868356
 21
5.731067
 31
0.0
  0
LINE
  8
0
 62
     0
 10
23.765476
 20
5.68122
 30
0.0
 11
23.809821
 21
5.725565
 31
0.0
  0
LINE
  8
0
 62
     0
 10
23.706941
 20
5.675718
 30
0.0
 11
23.751285
 21
5.720062
 31
0.0
  0
LINE
  8
0
 62
     0
 10
23.661063
 20
5.682873
 30
0.0
 11
23.69275
 21
5.71456
 31
0.0
  0
LINE
  8
0
 62
     0
 10
24.583563
 20
5.809878
 30
0.0
 11
24.610271
 21
5.836586
 31
0.0
  0
LINE
  8
0
 62
     0
 10
24.625754
 20
5.799036
 30
0.0
 11
24.678262
 21
5.851544
 31
0.0
  0
LINE
  8
0
 62
     0
 10
24.693745
 20
5.813994
 30
0.0
 11
24.746253
 21
5.866502
 31
0.0
  0
LINE
  8
0
 62
     0
 10
24.761736
 20
5.828952
 30
0.0
 11
24.814244
 21
5.88146
 31
0.0
  0
LINE
  8
0
 62
     0
 10
24.829727
 20
5.84391
 30
0.0
 11
24.882235
 21
5.896418
 31
0.0
  0
LINE
  8
0
 62
     0
 10
24.897718
 20
5.858868
 30
0.0
 11
24.950226
 21
5.911376
 31
0.0
  0
LINE
  8
0
 62
     0
 10
24.965709
 20
5.873826
 30
0.0
 11
25.018217
 21
5.926334
 31
0.0
  0
LINE
  8
0
 62
     0
 10
25.0337
 20
5.888784
 30
0.0
 11
25.088062
 21
5.943146
 31
0.0
  0
LINE
  8
0
 62
     0
 10
25.104333
 20
5.906383
 30
0.0
 11
25.165145
 21
5.967196
 31
0.0
  0
LINE
  8
0
 62
     0
 10
25.181325
 20
5.930342
 30
0.0
 11
25.242228
 21
5.991246
 31
0.0
  0
LINE
  8
0
 62
     0
 10
25.258407
 20
5.954392
 30
0.0
 11
25.319311
 21
6.015296
 31
0.0
  0
LINE
  8
0
 62
     0
 10
25.33549
 20
5.978442
 30
0.0
 11
25.396394
 21
6.039346
 31
0.0
  0
LINE
  8
0
 62
     0
 10
25.412573
 20
6.002492
 30
0.0
 11
25.473477
 21
6.063396
 31
0.0
  0
LINE
  8
0
 62
     0
 10
25.489656
 20
6.026542
 30
0.0
 11
25.55056
 21
6.087445
 31
0.0
  0
LINE
  8
0
 62
     0
 10
27.7471
 20
8.283986
 30
0.0
 11
27.776356
 21
8.313242
 31
0.0
  0
LINE
  8
0
 62
     0
 10
25.567013
 20
6.050865
 30
0.0
 11
25.638167
 21
6.122019
 31
0.0
  0
LINE
  8
0
 62
     0
 10
27.728856
 20
8.212708
 30
0.0
 11
27.784673
 21
8.268526
 31
0.0
  0
LINE
  8
0
 62
     0
 10
25.654805
 20
6.085625
 30
0.0
 11
25.729919
 21
6.160739
 31
0.0
  0
LINE
  8
0
 62
     0
 10
27.710243
 20
8.141063
 30
0.0
 11
27.766075
 21
8.196895
 31
0.0
  0
LINE
  8
0
 62
     0
 10
25.746558
 20
6.124345
 30
0.0
 11
25.821672
 21
6.199459
 31
0.0
  0
LINE
  8
0
 62
     0
 10
27.691631
 20
8.069417
 30
0.0
 11
27.747463
 21
8.12525
 31
0.0
  0
LINE
  8
0
 62
     0
 10
25.838311
 20
6.163064
 30
0.0
 11
25.913424
 21
6.238178
 31
0.0
  0
LINE
  8
0
 62
     0
 10
27.673018
 20
7.997772
 30
0.0
 11
27.72885
 21
8.053604
 31
0.0
  0
LINE
  8
0
 62
     0
 10
25.930063
 20
6.201784
 30
0.0
 11
26.005177
 21
6.276898
 31
0.0
  0
LINE
  8
0
 62
     0
 10
27.654405
 20
7.926126
 30
0.0
 11
27.710238
 21
7.981958
 31
0.0
  0
LINE
  8
0
 62
     0
 10
26.021816
 20
6.240504
 30
0.0
 11
26.103645
 21
6.322333
 31
0.0
  0
LINE
  8
0
 62
     0
 10
27.635793
 20
7.854481
 30
0.0
 11
27.691625
 21
7.910313
 31
0.0
  0
LINE
  8
0
 62
     0
 10
26.120075
 20
6.285729
 30
0.0
 11
26.220458
 21
6.386113
 31
0.0
  0
LINE
  8
0
 62
     0
 10
27.61718
 20
7.782835
 30
0.0
 11
27.673013
 21
7.838667
 31
0.0
  0
LINE
  8
0
 62
     0
 10
26.236887
 20
6.349509
 30
0.0
 11
26.337271
 21
6.449892
 31
0.0
  0
LINE
  8
0
 62
     0
 10
27.595818
 20
7.70844
 30
0.0
 11
27.6544
 21
7.767022
 31
0.0
  0
LINE
  8
0
 62
     0
 10
26.3537
 20
6.413289
 30
0.0
 11
26.454083
 21
6.513672
 31
0.0
  0
LINE
  8
0
 62
     0
 10
27.558461
 20
7.61805
 30
0.0
 11
27.632504
 21
7.692093
 31
0.0
  0
LINE
  8
0
 62
     0
 10
26.470513
 20
6.477069
 30
0.0
 11
26.579499
 21
6.586055
 31
0.0
  0
LINE
  8
0
 62
     0
 10
27.461197
 20
7.467753
 30
0.0
 11
27.594851
 21
7.601407
 31
0.0
  0
LINE
  8
0
 62
     0
 10
26.593852
 20
6.547375
 30
0.0
 11
26.812601
 21
6.766123
 31
0.0
  0
LINE
  8
0
 62
     0
 10
27.273137
 20
7.226659
 30
0.0
 11
27.50376
 21
7.457282
 31
0.0
  0
LINE
  8
0
 62
     0
 10
26.822943
 20
6.723433
 30
0.0
 11
27.315699
 21
7.216189
 31
0.0
  0
ENDBLK
  8
0
  0
BLOCK
  8
0
  2
*X3
 70
    65
 10
0.0
 20
0.0
 30
0.0
  3
*X
  0
LINE
  8
0
 62
     0
 10
19.949687
 20
5.577742
 30
0.0
 11
19.989687
 21
5.617742
 31
0.0
  0
LINE
  8
0
 62
     0
 10
19.896654
 20
5.577742
 30
0.0
 11
19.936654
 21
5.617742
 31
0.0
  0
LINE
  8
0
 62
     0
 10
19.84359
 20
5.57771
 30
0.0
 11
19.883621
 21
5.617742
 31
0.0
  0
LINE
  8
0
 62
     0
 10
19.7896
 20
5.576753
 30
0.0
 11
19.830449
 21
5.617603
 31
0.0
  0
LINE
  8
0
 62
     0
 10
19.734197
 20
5.574384
 30
0.0
 11
19.776147
 21
5.616333
 31
0.0
  0
LINE
  8
0
 62
     0
 10
19.67726
 20
5.570479
 30
0.0
 11
19.720432
 21
5.613652
 31
0.0
  0
LINE
  8
0
 62
     0
 10
19.618642
 20
5.564895
 30
0.0
 11
19.663183
 21
5.609436
 31
0.0
  0
LINE
  8
0
 62
     0
 10
19.558172
 20
5.557458
 30
0.0
 11
19.604256
 21
5.603542
 31
0.0
  0
LINE
  8
0
 62
     0
 10
19.495639
 20
5.547958
 30
0.0
 11
19.543479
 21
5.595797
 31
0.0
  0
LINE
  8
0
 62
     0
 10
19.430785
 20
5.536137
 30
0.0
 11
19.480641
 21
5.585993
 31
0.0
  0
LINE
  8
0
 62
     0
 10
19.363283
 20
5.521668
 30
0.0
 11
19.415487
 21
5.573872
 31
0.0
  0
LINE
  8
0
 62
     0
 10
19.292714
 20
5.504132
 30
0.0
 11
19.347692
 21
5.55911
 31
0.0
  0
LINE
  8
0
 62
     0
 10
18.06631
 20
4.330761
 30
0.0
 11
18.163824
 21
4.428275
 31
0.0
  0
LINE
  8
0
 62
     0
 10
19.218521
 20
5.482972
 30
0.0
 11
19.276841
 21
5.541292
 31
0.0
  0
LINE
  8
0
 62
     0
 10
18.013825
 20
4.331308
 30
0.0
 11
18.051349
 21
4.368833
 31
0.0
  0
LINE
  8
0
 62
     0
 10
19.139938
 20
5.457421
 30
0.0
 11
19.202383
 21
5.519867
 31
0.0
  0
LINE
  8
0
 62
     0
 10
18.125752
 20
4.443236
 30
0.0
 11
18.163276
 21
4.48076
 31
0.0
  0
LINE
  8
0
 62
     0
 10
17.976102
 20
4.346618
 30
0.0
 11
18.005604
 21
4.37612
 31
0.0
  0
LINE
  8
0
 62
     0
 10
19.055855
 20
5.426371
 30
0.0
 11
19.123562
 21
5.494079
 31
0.0
  0
LINE
  8
0
 62
     0
 10
18.118464
 20
4.488981
 30
0.0
 11
18.147966
 21
4.518483
 31
0.0
  0
LINE
  8
0
 62
     0
 10
17.947321
 20
4.370871
 30
0.0
 11
17.975696
 21
4.399246
 31
0.0
  0
LINE
  8
0
 62
     0
 10
18.964558
 20
5.388108
 30
0.0
 11
19.039289
 21
5.462839
 31
0.0
  0
LINE
  8
0
 62
     0
 10
18.095339
 20
4.518888
 30
0.0
 11
18.123714
 21
4.547263
 31
0.0
  0
LINE
  8
0
 62
     0
 10
17.926742
 20
4.403325
 30
0.0
 11
17.95834
 21
4.434923
 31
0.0
  0
LINE
  8
0
 62
     0
 10
18.863127
 20
5.33971
 30
0.0
 11
18.947888
 21
5.424471
 31
0.0
  0
LINE
  8
0
 62
     0
 10
17.916544
 20
4.44616
 30
0.0
 11
17.970742
 21
4.500357
 31
0.0
  0
LINE
  8
0
 62
     0
 10
18.745727
 20
5.275343
 30
0.0
 11
18.846528
 21
5.376144
 31
0.0
  0
LINE
  8
0
 62
     0
 10
17.933809
 20
4.516458
 30
0.0
 11
18.067046
 21
4.649694
 31
0.0
  0
LINE
  8
0
 62
     0
 10
18.59639
 20
5.179039
 30
0.0
 11
18.729627
 21
5.312276
 31
0.0
  0
LINE
  8
0
 62
     0
 10
18.028027
 20
4.663708
 30
0.0
 11
18.582376
 21
5.218058
 31
0.0
  0
LINE
  8
0
 62
     0
 10
20.00272
 20
5.577742
 30
0.0
 11
20.04272
 21
5.617742
 31
0.0
  0
LINE
  8
0
 62
     0
 10
20.055753
 20
5.577742
 30
0.0
 11
20.095753
 21
5.617742
 31
0.0
  0
LINE
  8
0
 62
     0
 10
20.108786
 20
5.577742
 30
0.0
 11
20.148786
 21
5.617742
 31
0.0
  0
LINE
  8
0
 62
     0
 10
20.161819
 20
5.577742
 30
0.0
 11
20.201819
 21
5.617742
 31
0.0
  0
LINE
  8
0
 62
     0
 10
20.214852
 20
5.577742
 30
0.0
 11
20.254852
 21
5.617742
 31
0.0
  0
LINE
  8
0
 62
     0
 10
20.267885
 20
5.577742
 30
0.0
 11
20.307885
 21
5.617742
 31
0.0
  0
LINE
  8
0
 62
     0
 10
20.320918
 20
5.577742
 30
0.0
 11
20.360918
 21
5.617742
 31
0.0
  0
LINE
  8
0
 62
     0
 10
20.373951
 20
5.577742
 30
0.0
 11
20.413951
 21
5.617742
 31
0.0
  0
LINE
  8
0
 62
     0
 10
20.426984
 20
5.577742
 30
0.0
 11
20.466984
 21
5.617742
 31
0.0
  0
LINE
  8
0
 62
     0
 10
20.480017
 20
5.577742
 30
0.0
 11
20.520017
 21
5.617742
 31
0.0
  0
LINE
  8
0
 62
     0
 10
20.53305
 20
5.577742
 30
0.0
 11
20.636014
 21
5.680706
 31
0.0
  0
LINE
  8
0
 62
     0
 10
20.649344
 20
5.641002
 30
0.0
 11
20.683343
 21
5.675002
 31
0.0
  0
LINE
  8
0
 62
     0
 10
20.689408
 20
5.628033
 30
0.0
 11
20.718096
 21
5.656721
 31
0.0
  0
LINE
  8
0
 62
     0
 10
20.715111
 20
5.600703
 30
0.0
 11
20.744078
 21
5.629671
 31
0.0
  0
LINE
  8
0
 62
     0
 10
20.745182
 20
5.577742
 30
0.0
 11
20.785182
 21
5.617742
 31
0.0
  0
LINE
  8
0
 62
     0
 10
20.798215
 20
5.577742
 30
0.0
 11
20.838215
 21
5.617742
 31
0.0
  0
LINE
  8
0
 62
     0
 10
20.851248
 20
5.577742
 30
0.0
 11
20.891248
 21
5.617742
 31
0.0
  0
LINE
  8
0
 62
     0
 10
20.904281
 20
5.577742
 30
0.0
 11
20.944281
 21
5.617742
 31
0.0
  0
LINE
  8
0
 62
     0
 10
20.957314
 20
5.577742
 30
0.0
 11
20.997314
 21
5.617742
 31
0.0
  0
LINE
  8
0
 62
     0
 10
21.010347
 20
5.577742
 30
0.0
 11
21.021063
 21
5.588458
 31
0.0
  0
ENDBLK
  8
0
  0
BLOCK
  8
0
  2
SPKRHOU
 70
    64
 10
0.0
 20
0.0
 30
0.0
  3
SPKRHOU
  0
INSERT
  8
HATCH
  2
*X1
 10
-17.916343
 20
-8.453242
 30
0.0
1001
ACAD
1000
HATCH
1002
{
1070
    16
1000
ANSI31
1040
0.3
1040
0.0
1002
}
  0
LINE
  8
CENTER
 10
-0.646216
 20
0.0
 30
0.0
 11
10.361462
 21
0.0
 31
0.0
  0
LINE
  8
OBJMEDIUM
 10
4.646002
 20
-2.852165
 30
0.0
 11
4.15664
 21
-2.859995
 31
0.0
  0
LINE
  8
OBJMEDIUM
 10
4.15664
 20
2.859995
 30
0.0
 11
4.646002
 21
2.852165
 31
0.0
  0
LINE
  8
OBJMEDIUM
 10
4.656
 20
-2.812
 30
0.0
 11
4.156
 21
-2.82
 31
0.0
  0
LINE
  8
OBJMEDIUM
 10
4.156
 20
2.82
 30
0.0
 11
4.656
 21
2.812
 31
0.0
  0
LINE
  8
OBJMEDIUM
 10
0.0
 20
4.0
 30
0.0
 11
0.0
 21
-4.0
 31
0.0
  0
LINE
  8
OBJMEDIUM
 10
2.623479
 20
-2.8355
 30
0.0
 11
2.622416
 21
2.8355
 31
0.0
  0
LINE
  8
OBJMEDIUM
 10
2.832281
 20
2.8355
 30
0.0
 11
2.835049
 21
-2.8355
 31
0.0
  0
INSERT
  8
HATCH
  2
*X3
 10
-17.916343
 20
-8.453242
 30
0.0
1001
ACAD
1000
HATCH
1002
{
1070
    16
1000
ANSI31
1040
0.3
1040
0.0
1002
}
  0
ARC
  8
OBJMEDIUM
 10
1.939
 20
-5.0625
 30
0.0
 40
2.187
 50
90.0
 51
149.819479
  0
ARC
  8
OBJMEDIUM
 10
1.939
 20
-5.0625
 30
0.0
 40
2.227
 50
90.0
 51
149.686612
  0
LINE
  8
OBJMEDIUM
 10
0.19099
 20
-3.893838
 30
0.0
 11
0.169873
 21
-3.92781
 31
0.0
  0
ARC
  8
OBJMEDIUM
 10
0.125
 20
-4.0
 30
0.0
 40
0.085
 50
150.345246
 51
58.135159
  0
ARC
  8
OBJMEDIUM
 10
0.125
 20
-4.0
 30
0.0
 40
0.125
 50
150.345246
 51
58.135159
  0
LINE
  8
OBJMEDIUM
 10
0.169873
 20
-3.92781
 30
0.0
 11
0.169873
 21
-3.78029
 31
0.0
  0
LINE
  8
OBJMEDIUM
 10
0.249981
 20
-3.997804
 30
0.0
 11
0.249981
 21
-3.675343
 31
0.0
  0
LINE
  8
OBJMEDIUM
 10
0.19099
 20
-3.893838
 30
0.0
 11
0.19099
 21
-3.749681
 31
0.0
  0
LINE
  8
OBJMEDIUM
 10
2.835049
 20
-2.8755
 30
0.0
 11
2.807512
 21
-2.8755
 31
0.0
  0
ARC
  8
OBJMEDIUM
 10
2.729264
 20
-2.892152
 30
0.0
 40
0.12
 50
28.170807
 51
151.482362
  0
LINE
  8
OBJMEDIUM
 10
2.651016
 20
-2.8755
 30
0.0
 11
1.939
 21
-2.8755
 31
0.0
  0
LINE
  8
OBJMEDIUM
 10
2.623479
 20
-2.8355
 30
0.0
 11
1.939
 21
-2.8355
 31
0.0
  0
ARC
  8
OBJMEDIUM
 10
2.729264
 20
-2.892152
 30
0.0
 40
0.08
 50
12.014106
 51
167.985894
  0
LINE
  8
CENTER
 10
3.10472
 20
-2.695119
 30
0.0
 11
3.10472
 21
-3.332435
 31
0.0
  0
LINE
  8
OBJMEDIUM
 10
4.15664
 20
-2.859995
 30
0.0
 11
3.65664
 21
-2.867995
 31
0.0
  0
LINE
  8
OBJMEDIUM
 10
4.156
 20
-2.82
 30
0.0
 11
3.656
 21
-2.828
 31
0.0
  0
LINE
  8
OBJMEDIUM
 10
3.6566
 20
-2.867996
 30
0.0
 11
3.1566
 21
-2.875496
 31
0.0
  0
LINE
  8
OBJMEDIUM
 10
3.656
 20
-2.828
 30
0.0
 11
3.156
 21
-2.8355
 31
0.0
  0
LINE
  8
OBJMEDIUM
 10
3.10472
 20
-2.8355
 30
0.0
 11
3.10472
 21
-2.8755
 31
0.0
  0
LINE
  8
OBJMEDIUM
 10
3.156
 20
-2.8755
 30
0.0
 11
2.835049
 21
-2.8755
 31
0.0
  0
LINE
  8
OBJMEDIUM
 10
3.156
 20
-2.8355
 30
0.0
 11
2.835049
 21
-2.8355
 31
0.0
  0
LINE
  8
CENTER
 10
2.72972
 20
1.317372
 30
0.0
 11
2.72972
 21
3.702964
 31
0.0
  0
ARC
  8
OBJMEDIUM
 10
1.939
 20
5.0625
 30
0.0
 40
2.227
 50
210.223031
 51
270.0
  0
ARC
  8
OBJMEDIUM
 10
1.939
 20
5.0625
 30
0.0
 40
2.187
 50
210.264773
 51
270.0
  0
ARC
  8
OBJMEDIUM
 10
2.727349
 20
2.893716
 30
0.0
 40
0.12
 50
209.021298
 51
330.978702
  0
LINE
  8
OBJMEDIUM
 10
2.805247
 20
2.8755
 30
0.0
 11
3.150675
 21
2.8755
 31
0.0
  0
LINE
  8
OBJMEDIUM
 10
1.939
 20
2.8355
 30
0.0
 11
2.622416
 21
2.8355
 31
0.0
  0
LINE
  8
OBJMEDIUM
 10
1.939
 20
2.8755
 30
0.0
 11
2.64945
 21
2.8755
 31
0.0
  0
ARC
  8
OBJMEDIUM
 10
2.727349
 20
2.893716
 30
0.0
 40
0.08
 50
193.161819
 51
346.838181
  0
LINE
  8
OBJMEDIUM
 10
3.656995
 20
2.867989
 30
0.0
 11
4.15664
 21
2.859995
 31
0.0
  0
LINE
  8
OBJMEDIUM
 10
3.656
 20
2.828
 30
0.0
 11
4.156
 21
2.82
 31
0.0
  0
LINE
  8
OBJMEDIUM
 10
3.161924
 20
2.875416
 30
0.0
 11
3.656245
 21
2.868001
 31
0.0
  0
LINE
  8
OBJMEDIUM
 10
3.156
 20
2.8355
 30
0.0
 11
3.656
 21
2.828
 31
0.0
  0
ARC
  8
OBJMEDIUM
 10
3.150675
 20
2.1255
 30
0.0
 40
0.75
 50
89.140628
 51
90.0
  0
LINE
  8
OBJMEDIUM
 10
2.832281
 20
2.8355
 30
0.0
 11
3.156
 21
2.8355
 31
0.0
  0
ARC
  8
OBJMEDIUM
 10
3.644996
 20
2.118085
 30
0.0
 40
0.75
 50
89.083346
 51
89.140628
  0
ARC
  8
OBJMEDIUM
 10
3.644996
 20
2.118085
 30
0.0
 40
0.75
 50
89.083346
 51
89.140628
  0
LINE
  8
OBJMEDIUM
 10
0.173555
 20
3.930233
 30
0.0
 11
0.196404
 21
3.897402
 31
0.0
  0
ARC
  8
OBJMEDIUM
 10
0.125
 20
4.0
 30
0.0
 40
0.085
 50
304.836303
 51
207.942072
  0
ARC
  8
OBJMEDIUM
 10
0.125
 20
4.0
 30
0.0
 40
0.125
 50
304.836303
 51
207.942072
  0
LINE
  8
OBJMEDIUM
 10
0.173555
 20
3.930233
 30
0.0
 11
0.173555
 21
3.773512
 31
0.0
  0
LINE
  8
OBJMEDIUM
 10
0.196404
 20
3.897402
 30
0.0
 11
0.196404
 21
3.744927
 31
0.0
  0
LINE
  8
OBJMEDIUM
 10
0.249988
 20
3.998263
 30
0.0
 11
0.249988
 21
3.674766
 31
0.0
  0
INSERT
  8
HATCH
  2
*X2
 10
-17.916343
 20
-8.453242
 30
0.0
1001
ACAD
1000
HATCH
1002
{
1070
    16
1000
ANSI31
1040
0.3
1040
0.0
1002
}
  0
ARC
  8
OBJMEDIUM
 10
8.242517
 20
-1.24625
 30
0.0
 40
0.75
 50
298.63454
 51
308.025407
  0
ARC
  8
OBJMEDIUM
 10
8.26457
 20
-1.279783
 30
0.0
 40
0.75
 50
298.63454
 51
308.025407
  0
LINE
  8
OBJMEDIUM
 10
8.171552
 20
-2.184853
 30
0.0
 11
7.703269
 21
-2.382468
 31
0.0
  0
LINE
  8
OBJMEDIUM
 10
8.156
 20
-2.148
 30
0.0
 11
7.656
 21
-2.359
 31
0.0
  0
LINE
  8
OBJMEDIUM
 10
6.640483
 20
-2.667905
 30
0.0
 11
6.183578
 21
-2.739182
 31
0.0
  0
LINE
  8
OBJMEDIUM
 10
6.656
 20
-2.625
 30
0.0
 11
6.156
 21
-2.703
 31
0.0
  0
LINE
  8
OBJMEDIUM
 10
5.653489
 20
-2.790317
 30
0.0
 11
5.170393
 21
-2.827999
 31
0.0
  0
LINE
  8
OBJMEDIUM
 10
5.656
 20
-2.75
 30
0.0
 11
5.156
 21
-2.789
 31
0.0
  0
LINE
  8
OBJMEDIUM
 10
5.146533
 20
-2.829478
 30
0.0
 11
4.668467
 21
-2.851469
 31
0.0
  0
LINE
  8
OBJMEDIUM
 10
5.156
 20
-2.789
 30
0.0
 11
4.656
 21
-2.812
 31
0.0
  0
ARC
  8
OBJMEDIUM
 10
4.634003
 20
-2.102261
 30
0.0
 40
0.75
 50
270.916654
 51
272.633749
  0
ARC
  8
OBJMEDIUM
 10
5.11207
 20
-2.08027
 30
0.0
 40
0.75
 50
272.633749
 51
274.46004
  0
LINE
  8
OBJMEDIUM
 10
6.138167
 20
-2.744853
 30
0.0
 11
5.665357
 21
-2.789297
 31
0.0
  0
LINE
  8
OBJMEDIUM
 10
6.156
 20
-2.703
 30
0.0
 11
5.656
 21
-2.75
 31
0.0
  0
ARC
  8
OBJMEDIUM
 10
5.595166
 20
-2.042588
 30
0.0
 40
0.75
 50
274.46004
 51
275.370024
  0
LINE
  8
OBJMEDIUM
 10
5.74472
 20
-2.74166
 30
0.0
 11
5.74472
 21
-2.781837
 31
0.0
  0
ARC
  8
OBJMEDIUM
 10
6.067976
 20
-1.998144
 30
0.0
 40
0.75
 50
275.370024
 51
278.866676
  0
LINE
  8
OBJMEDIUM
 10
7.63505
 20
-2.407438
 30
0.0
 11
7.197035
 21
-2.544099
 31
0.0
  0
LINE
  8
OBJMEDIUM
 10
7.656
 20
-2.359
 30
0.0
 11
7.156
 21
-2.515
 31
0.0
  0
LINE
  8
CENTER
 10
6.60472
 20
-2.524675
 30
0.0
 11
6.60472
 21
-2.806279
 31
0.0
  0
LINE
  8
OBJMEDIUM
 10
7.134801
 20
-2.56062
 30
0.0
 11
6.686027
 21
-2.659351
 31
0.0
  0
LINE
  8
OBJMEDIUM
 10
7.156
 20
-2.515
 30
0.0
 11
6.656
 21
-2.625
 31
0.0
  0
ARC
  8
OBJMEDIUM
 10
6.524881
 20
-1.926867
 30
0.0
 40
0.75
 50
278.866676
 51
282.407419
  0
LINE
  8
OBJMEDIUM
 10
6.66722
 20
-2.622532
 30
0.0
 11
6.66722
 21
-2.663488
 31
0.0
  0
LINE
  8
OBJMEDIUM
 10
6.54222
 20
-2.64275
 30
0.0
 11
6.54222
 21
-2.683233
 31
0.0
  0
ARC
  8
OBJMEDIUM
 10
6.973655
 20
-1.828137
 30
0.0
 40
0.75
 50
282.407419
 51
287.327922
  0
ARC
  8
OBJMEDIUM
 10
7.41167
 20
-1.691476
 30
0.0
 40
0.75
 50
287.327922
 51
292.879745
  0
LINE
  8
OBJMEDIUM
 10
8.623986
 20
-1.938054
 30
0.0
 11
8.175169
 21
-2.183108
 31
0.0
  0
LINE
  8
OBJMEDIUM
 10
8.601933
 20
-1.904521
 30
0.0
 11
8.156
 21
-2.148
 31
0.0
  0
LINE
  8
OBJMEDIUM
 10
8.171552
 20
-2.184853
 30
0.0
 11
8.175169
 21
-2.183108
 31
0.0
  0
LINE
  8
OBJMEDIUM
 10
7.703269
 20
2.382468
 30
0.0
 11
8.138673
 21
2.198728
 31
0.0
  0
LINE
  8
OBJMEDIUM
 10
7.656
 20
2.359
 30
0.0
 11
8.156
 21
2.148
 31
0.0
  0
LINE
  8
OBJMEDIUM
 10
6.183578
 20
2.739182
 30
0.0
 11
6.640483
 21
2.667905
 31
0.0
  0
LINE
  8
OBJMEDIUM
 10
6.156
 20
2.703
 30
0.0
 11
6.656
 21
2.625
 31
0.0
  0
LINE
  8
OBJMEDIUM
 10
5.159111
 20
2.828879
 30
0.0
 11
5.653489
 21
2.790317
 31
0.0
  0
LINE
  8
OBJMEDIUM
 10
5.156
 20
2.789
 30
0.0
 11
5.656
 21
2.75
 31
0.0
  0
LINE
  8
OBJMEDIUM
 10
4.668467
 20
2.851469
 30
0.0
 11
5.157838
 21
2.828958
 31
0.0
  0
LINE
  8
OBJMEDIUM
 10
4.656
 20
2.812
 30
0.0
 11
5.156
 21
2.789
 31
0.0
  0
ARC
  8
OBJMEDIUM
 10
4.634003
 20
2.102261
 30
0.0
 40
0.75
 50
87.366251
 51
89.083346
  0
LINE
  8
OBJMEDIUM
 10
5.665357
 20
2.789297
 30
0.0
 11
6.138167
 21
2.744853
 31
0.0
  0
LINE
  8
OBJMEDIUM
 10
5.656
 20
2.75
 30
0.0
 11
6.156
 21
2.703
 31
0.0
  0
ARC
  8
OBJMEDIUM
 10
5.595166
 20
2.042588
 30
0.0
 40
0.75
 50
84.629976
 51
85.53996
  0
ARC
  8
OBJMEDIUM
 10
6.067976
 20
1.998144
 30
0.0
 40
0.75
 50
81.133324
 51
84.629976
  0
LINE
  8
OBJMEDIUM
 10
7.197035
 20
2.544099
 30
0.0
 11
7.63505
 21
2.407438
 31
0.0
  0
LINE
  8
OBJMEDIUM
 10
7.156
 20
2.515
 30
0.0
 11
7.656
 21
2.359
 31
0.0
  0
LINE
  8
OBJMEDIUM
 10
6.686027
 20
2.659351
 30
0.0
 11
7.134801
 21
2.56062
 31
0.0
  0
LINE
  8
OBJMEDIUM
 10
6.656
 20
2.625
 30
0.0
 11
7.156
 21
2.515
 31
0.0
  0
ARC
  8
OBJMEDIUM
 10
6.524881
 20
1.926867
 30
0.0
 40
0.75
 50
77.592581
 51
81.133324
  0
ARC
  8
OBJMEDIUM
 10
6.973655
 20
1.828137
 30
0.0
 40
0.75
 50
72.672078
 51
77.592581
  0
ARC
  8
OBJMEDIUM
 10
7.41167
 20
1.691476
 30
0.0
 40
0.75
 50
67.120255
 51
72.672078
  0
ARC
  8
OBJMEDIUM
 10
9.005769
 20
0.522214
 30
0.0
 40
0.75
 50
14.562756
 51
37.955342
  0
ARC
  8
OBJMEDIUM
 10
8.969136
 20
0.504141
 30
0.0
 40
0.75
 50
14.562756
 51
37.955342
  0
LINE
  8
OBJMEDIUM
 10
9.864724
 20
-0.198638
 30
0.0
 11
9.733755
 21
-0.702779
 31
0.0
  0
LINE
  8
OBJMEDIUM
 10
9.87825
 20
-0.14
 30
0.0
 11
9.836922
 21
-0.14
 31
0.0
  0
LINE
  8
OBJMEDIUM
 10
9.836922
 20
0.14
 30
0.0
 11
9.87825
 21
0.14
 31
0.0
  0
LINE
  8
OBJMEDIUM
 10
9.867337
 20
-0.18858
 30
0.0
 11
9.731673
 21
-0.710794
 31
0.0
  0
LINE
  8
OBJMEDIUM
 10
9.731673
 20
0.710794
 30
0.0
 11
9.867337
 21
0.18858
 31
0.0
  0
LINE
  8
OBJMEDIUM
 10
9.826009
 20
-0.18858
 30
0.0
 11
9.69504
 21
-0.692721
 31
0.0
  0
LINE
  8
OBJMEDIUM
 10
9.107998
 20
-1.572316
 30
0.0
 11
8.729166
 21
-1.868563
 31
0.0
  0
LINE
  8
OBJMEDIUM
 10
9.083358
 20
-1.540806
 30
0.0
 11
8.704525
 21
-1.837053
 31
0.0
  0
LINE
  8
OBJMEDIUM
 10
8.726578
 20
-1.870586
 30
0.0
 11
8.729166
 21
-1.868563
 31
0.0
  0
LINE
  8
OBJMEDIUM
 10
9.592043
 20
-0.990028
 30
0.0
 11
9.244257
 21
-1.43589
 31
0.0
  0
LINE
  8
OBJMEDIUM
 10
9.592043
 20
-0.990028
 30
0.0
 11
9.244257
 21
-1.43589
 31
0.0
  0
LINE
  8
OBJMEDIUM
 10
9.560504
 20
-0.965426
 30
0.0
 11
9.212717
 21
-1.411288
 31
0.0
  0
LINE
  8
OBJMEDIUM
 10
9.244257
 20
-1.43589
 30
0.0
 11
9.244257
 21
-1.43589
 31
0.0
  0
ARC
  8
OBJMEDIUM
 10
8.62135
 20
-0.950003
 30
0.0
 40
0.79
 50
308.025407
 51
322.044658
  0
ARC
  8
OBJMEDIUM
 10
8.62135
 20
-0.950003
 30
0.0
 40
0.75
 50
308.025407
 51
322.044658
  0
ARC
  8
OBJMEDIUM
 10
8.969136
 20
-0.504141
 30
0.0
 40
0.79
 50
322.044658
 51
345.437244
  0
ARC
  8
OBJMEDIUM
 10
8.969136
 20
-0.504141
 30
0.0
 40
0.75
 50
322.044658
 51
345.437244
  0
ARC
  8
OBJMEDIUM
 10
9.100105
 20
0.0
 30
0.0
 40
0.75
 50
345.437244
 51
14.562756
  0
LINE
  8
OBJMEDIUM
 10
9.69504
 20
0.692721
 30
0.0
 11
9.826009
 21
0.18858
 31
0.0
  0
ARC
  8
OBJMEDIUM
 10
9.141433
 20
0.0
 30
0.0
 40
0.75
 50
345.437244
 51
14.562756
  0
LINE
  8
OBJMEDIUM
 10
8.726578
 20
1.870586
 30
0.0
 11
9.111872
 21
1.569286
 31
0.0
  0
LINE
  8
OBJMEDIUM
 10
8.656
 20
1.875
 30
0.0
 11
9.083358
 21
1.540806
 31
0.0
  0
LINE
  8
OBJMEDIUM
 10
8.20649
 20
2.166006
 30
0.0
 11
8.623986
 21
1.938054
 31
0.0
  0
LINE
  8
OBJMEDIUM
 10
8.156
 20
2.148
 30
0.0
 11
8.656
 21
1.875
 31
0.0
  0
ARC
  8
OBJMEDIUM
 10
7.847075
 20
1.507735
 30
0.0
 40
0.75
 50
61.36546
 51
67.120255
  0
ARC
  8
OBJMEDIUM
 10
8.26457
 20
1.279783
 30
0.0
 40
0.75
 50
51.974593
 51
61.36546
  0
ARC
  8
OBJMEDIUM
 10
8.649864
 20
0.978483
 30
0.0
 40
0.75
 50
37.955342
 51
51.974593
  0
ARC
  8
OBJMEDIUM
 10
8.62135
 20
0.950003
 30
0.0
 40
0.75
 50
37.955342
 51
51.974593
  0
ARC
  8
OBJMEDIUM
 10
8.649864
 20
0.978483
 30
0.0
 40
0.75
 50
37.955342
 51
51.974593
  0
LINE
  8
OBJMEDIUM
 10
9.241232
 20
1.439768
 30
0.0
 11
9.597136
 21
0.983499
 31
0.0
  0
LINE
  8
OBJMEDIUM
 10
9.212717
 20
1.411288
 30
0.0
 11
9.560504
 21
0.965426
 31
0.0
  0
ENDBLK
  8
0
  0
BLOCK
  8
0
  2
*D5
 70
    65
 10
0.0
 20
0.0
 30
0.0
  3
*D
  0
LINE
  8
0
  6
BYBLOCK
 62
     0
 10
16.522584
 20
12.688315
 30
0.0
 11
15.172664
 21
12.688315
 31
0.0
  0
LINE
  8
0
  6
BYBLOCK
 62
     0
 10
16.50331
 20
4.448925
 30
0.0
 11
15.172664
 21
4.448925
 31
0.0
  0
LINE
  8
0
  6
BYBLOCK
 62
     0
 10
15.235664
 20
12.538315
 30
0.0
 11
15.235664
 21
8.864653
 31
0.0
  0
LINE
  8
0
  6
BYBLOCK
 62
     0
 10
15.235664
 20
4.598925
 30
0.0
 11
15.235664
 21
8.559653
 31
0.0
  0
SOLID
  8
0
  6
BYBLOCK
 62
     0
 10
15.210664
 20
12.538315
 30
0.0
 11
15.260664
 21
12.538315
 31
0.0
 12
15.235664
 22
12.688315
 32
0.0
 13
15.235664
 23
12.688315
 33
0.0
  0
SOLID
  8
0
  6
BYBLOCK
 62
     0
 10
15.210664
 20
4.598925
 30
0.0
 11
15.260664
 21
4.598925
 31
0.0
 12
15.235664
 22
4.448925
 32
0.0
 13
15.235664
 23
4.448925
 33
0.0
  0
TEXT
  8
0
  6
BYBLOCK
 62
     0
 10
15.009143
 20
8.649653
 30
0.0
 40
0.125
  1
%%C8.25
 41
0.95
 72
     1
 11
15.252298
 21
8.712153
 31
0.0
 73
     2
  0
POINT
  8
DEFPOINTS
  6
BYBLOCK
 62
     0
 10
16.585584
 20
12.688315
 30
0.0
  0
POINT
  8
DEFPOINTS
  6
BYBLOCK
 62
     0
 10
16.56631
 20
4.448925
 30
0.0
  0
POINT
  8
DEFPOINTS
  6
BYBLOCK
 62
     0
 10
15.235664
 20
4.448925
 30
0.0
  0
ENDBLK
  8
0
  0
BLOCK
  8
0
  2
*D6
 70
    65
 10
0.0
 20
0.0
 30
0.0
  3
*D
  0
LINE
  8
0
  6
BYBLOCK
 62
     0
 10
16.416343
 20
12.634406
 30
0.0
 11
16.416343
 21
14.49053
 31
0.0
  0
LINE
  8
0
  6
BYBLOCK
 62
     0
 10
26.307775
 20
8.634406
 30
0.0
 11
26.307775
 21
14.49053
 31
0.0
  0
LINE
  8
0
  6
BYBLOCK
 62
     0
 10
16.566343
 20
14.42753
 30
0.0
 11
21.051524
 21
14.42753
 31
0.0
  0
LINE
  8
0
  6
BYBLOCK
 62
     0
 10
26.157775
 20
14.42753
 30
0.0
 11
21.672595
 21
14.42753
 31
0.0
  0
SOLID
  8
0
  6
BYBLOCK
 62
     0
 10
16.566343
 20
14.45253
 30
0.0
 11
16.566343
 21
14.40253
 31
0.0
 12
16.416343
 22
14.42753
 32
0.0
 13
16.416343
 23
14.42753
 33
0.0
  0
SOLID
  8
0
  6
BYBLOCK
 62
     0
 10
26.157775
 20
14.45253
 30
0.0
 11
26.157775
 21
14.40253
 31
0.0
 12
26.307775
 22
14.42753
 32
0.0
 13
26.307775
 23
14.42753
 33
0.0
  0
TEXT
  8
0
  6
BYBLOCK
 62
     0
 10
21.124559
 20
14.36503
 30
0.0
 40
0.125
  1
9.891
 41
0.95
 72
     1
 11
21.362059
 21
14.42753
 31
0.0
 73
     2
  0
POINT
  8
DEFPOINTS
  6
BYBLOCK
 62
     0
 10
16.416343
 20
12.571406
 30
0.0
  0
POINT
  8
DEFPOINTS
  6
BYBLOCK
 62
     0
 10
26.307775
 20
8.571406
 30
0.0
  0
POINT
  8
DEFPOINTS
  6
BYBLOCK
 62
     0
 10
26.307775
 20
14.42753
 30
0.0
  0
ENDBLK
  8
0
  0
BLOCK
  8
0
  2
CP100B
 70
     0
 10
0.0
 20
0.0
 30
0.0
  3
CP100B
  0
LINE
  8
CENTER
 10
-0.63822
 20
0.0
 30
0.0
 11
10.369458
 21
0.0
 31
0.0
  0
ARC
  8
OBJMEDIUM
 10
-0.242004
 20
0.75
 30
0.0
 40
0.25
 50
90.0
 51
180.0
  0
ARC
  8
OBJMEDIUM
 10
-0.453761
 20
-0.472892
 30
0.0
 40
0.197254
 50
170.401058
 51
249.371995
  0
LINE
  8
OBJMEDIUM
 10
-0.492004
 20
0.75
 30
0.0
 11
-0.492004
 21
-0.75
 31
0.0
  0
LINE
  8
OBJMEDIUM
 10
-0.523254
 20
0.72
 30
0.0
 11
-0.523254
 21
-0.72
 31
0.0
  0
LINE
  8
OBJMEDIUM
 10
-0.242004
 20
-1.0
 30
0.0
 11
0.757996
 21
-1.0
 31
0.0
  0
ARC
  8
OBJMEDIUM
 10
-0.242004
 20
-0.75
 30
0.0
 40
0.25
 50
180.0
 51
270.0
  0
LINE
  8
OBJMEDIUM
 10
-0.523254
 20
-0.72
 30
0.0
 11
-0.492004
 21
-0.72
 31
0.0
  0
LINE
  8
OBJMEDIUM
 10
-0.648254
 20
0.44
 30
0.0
 11
-0.648254
 21
-0.44
 31
0.0
  0
ARC
  8
HIDDEN
 10
-0.481305
 20
0.252609
 30
0.0
 40
0.162222
 50
177.95322
 51
255.823655
  0
ARC
  8
HIDDEN
 10
-0.49805
 20
0.009245
 30
0.0
 40
0.082552
 50
106.165809
 51
248.851748
  0
ARC
  8
HIDDEN
 10
-0.491673
 20
-0.236098
 30
0.0
 40
0.160612
 50
105.514136
 51
170.807114
  0
LINE
  8
OBJMEDIUM
 10
-0.492004
 20
0.72
 30
0.0
 11
-0.523254
 21
0.72
 31
0.0
  0
ARC
  8
OBJMEDIUM
 10
-0.447913
 20
0.469531
 30
0.0
 40
0.202505
 50
111.84161
 51
188.385336
  0
LINE
  8
OBJMEDIUM
 10
0.757996
 20
1.0
 30
0.0
 11
-0.242004
 21
1.0
 31
0.0
  0
ARC
  8
OBJMEDIUM
 10
0.994863
 20
-8.046825
 30
0.0
 40
7.050804
 50
64.412788
 51
91.925177
  0
ARC
  8
OBJMEDIUM
 10
0.915229
 20
8.426984
 30
0.0
 40
7.428648
 50
268.787201
 51
294.874834
  0
ENDBLK
  8
0
  0
BLOCK
  8
0
  2
CP100C
 70
     0
 10
0.0
 20
0.0
 30
0.0
  3
CP100C
  0
LINE
  8
OBJMEDIUM
 10
-2.087214
 20
1.499695
 30
0.0
 11
-0.752577
 21
0.117921
 31
0.0
  0
LINE
  8
OBJMEDIUM
 10
-1.972
 20
1.783445
 30
0.0
 11
-0.620142
 21
0.383841
 31
0.0
  0
LINE
  8
OBJMEDIUM
 10
-5.974604
 20
0.165411
 30
0.0
 11
-5.11239
 21
1.414456
 31
0.0
  0
LINE
  8
OBJMEDIUM
 10
-5.199199
 20
1.628445
 30
0.0
 11
-5.032
 21
1.628445
 31
0.0
  0
LINE
  8
OBJMEDIUM
 10
-6.063829
 20
0.423416
 30
0.0
 11
-5.250634
 21
1.601451
 31
0.0
  0
ARC
  8
OBJMEDIUM
 10
-6.875
 20
0.163445
 30
0.0
 40
0.125
 50
90.0
 51
180.0
  0
LINE
  8
OBJMEDIUM
 10
-7.0
 20
0.003445
 30
0.0
 11
-6.283216
 21
0.003445
 31
0.0
  0
LINE
  8
OBJMEDIUM
 10
-7.0
 20
0.003445
 30
0.0
 11
-7.0
 21
0.163445
 31
0.0
  0
ARC
  8
OBJMEDIUM
 10
-6.283216
 20
0.378445
 30
0.0
 40
0.375
 50
270.0
 51
325.382739
  0
LINE
  8
CENTER
 10
-6.593
 20
0.402104
 30
0.0
 11
-6.593
 21
-0.160376
 31
0.0
  0
LINE
  8
OBJMEDIUM
 10
-6.875
 20
0.288445
 30
0.0
 11
-6.321006
 21
0.288445
 31
0.0
  0
ARC
  8
OBJMEDIUM
 10
-6.321006
 20
0.600945
 30
0.0
 40
0.3125
 50
270.0
 51
325.382739
  0
ARC
  8
OBJMEDIUM
 10
-5.199199
 20
1.565945
 30
0.0
 40
0.0625
 50
90.0
 51
145.382739
  0
ARC
  8
OBJMEDIUM
 10
-2.608113
 20
11.931494
 30
0.0
 40
10.167966
 50
262.67785
 51
273.586792
  0
LINE
  8
OBJMEDIUM
 10
-3.87275
 20
1.468445
 30
0.0
 11
-3.007267
 21
1.468445
 31
0.0
  0
ARC
  8
OBJMEDIUM
 10
-3.915061
 20
15.401687
 30
0.0
 40
13.756163
 50
270.175829
 51
278.120196
  0
ARC
  8
OBJMEDIUM
 10
-4.220317
 20
-1.140176
 30
0.0
 40
3.003325
 50
83.954269
 51
105.410264
  0
LINE
  8
OBJMEDIUM
 10
-4.68725
 20
1.468445
 30
0.0
 11
-3.87275
 21
1.468445
 31
0.0
  0
ARC
  8
OBJMEDIUM
 10
-4.121398
 20
7.649981
 30
0.0
 40
6.009672
 50
264.545732
 51
272.404757
  0
LINE
  8
CENTER
 10
-4.5
 20
2.01711
 30
0.0
 11
-4.5
 21
1.261438
 31
0.0
  0
ARC
  8
OBJMEDIUM
 10
-5.009519
 20
1.343445
 30
0.0
 40
0.125
 50
90.0
 51
145.382739
  0
LINE
  8
OBJMEDIUM
 10
-5.009519
 20
1.468445
 30
0.0
 11
-4.68725
 21
1.468445
 31
0.0
  0
ARC
  8
OBJMEDIUM
 10
-3.915061
 20
15.401687
 30
0.0
 40
13.756163
 50
265.413223
 51
266.789365
  0
LINE
  8
OBJMEDIUM
 10
-5.032
 20
1.689624
 30
0.0
 11
-5.032
 21
1.674006
 31
0.0
  0
ARC
  8
OBJMEDIUM
 10
-5.016375
 20
1.674006
 30
0.0
 40
0.015625
 50
85.413223
 51
180.0
  0
ARC
  8
OBJMEDIUM
 10
-5.014235
 20
1.74011
 30
0.0
 40
0.015625
 50
105.410264
 51
177.588098
  0
LINE
  8
OBJMEDIUM
 10
-5.029846
 20
1.740767
 30
0.0
 11
-5.032
 21
1.689624
 31
0.0
  0
LINE
  8
OBJMEDIUM
 10
-5.032
 20
1.628445
 30
0.0
 11
-5.032
 21
1.674006
 31
0.0
  0
LINE
  8
CENTER
 10
-3.532
 20
1.936199
 30
0.0
 11
-3.532
 21
1.22462
 31
0.0
  0
LINE
  8
OBJMEDIUM
 10
-2.846605
 20
1.499695
 30
0.0
 11
-2.087214
 21
1.499695
 31
0.0
  0
LINE
  8
CENTER
 10
-2.657
 20
1.950574
 30
0.0
 11
-2.657
 21
1.221026
 31
0.0
  0
LINE
  8
OBJMEDIUM
 10
-3.007267
 20
1.468445
 30
0.0
 11
-2.846605
 21
1.499695
 31
0.0
  0
LINE
  8
OBJMEDIUM
 10
-0.482851
 20
0.003445
 30
0.0
 11
0.44
 21
0.003445
 31
0.0
  0
LINE
  8
OBJMEDIUM
 10
-0.39537
 20
0.288445
 30
0.0
 11
0.315
 21
0.288445
 31
0.0
  0
ARC
  8
OBJMEDIUM
 10
-0.482851
 20
0.378445
 30
0.0
 40
0.375
 50
224.005855
 51
270.0
  0
LINE
  8
CENTER
 10
0.0
 20
0.423418
 30
0.0
 11
0.0
 21
-0.105894
 31
0.0
  0
ARC
  8
OBJMEDIUM
 10
-0.39537
 20
0.600945
 30
0.0
 40
0.3125
 50
224.005855
 51
270.0
  0
LINE
  8
OBJMEDIUM
 10
0.44
 20
0.163445
 30
0.0
 11
0.44
 21
0.003445
 31
0.0
  0
ARC
  8
OBJMEDIUM
 10
0.315
 20
0.163445
 30
0.0
 40
0.125
 50
0.0
 51
90.0
  0
ENDBLK
  8
0
  0
BLOCK
  8
0
  2
CP100D
 70
    64
 10
0.0
 20
0.0
 30
0.0
  3
CP100D
  0
LINE
  8
CENTER
 10
-4.303828
 20
0.0
 30
0.0
 11
4.366926
 21
0.0
 31
0.0
  0
CIRCLE
  8
OBJMEDIUM
 10
-0.002375
 20
0.0
 30
0.0
 40
2.773
  0
CIRCLE
  8
OBJMEDIUM
 10
-0.002375
 20
0.0
 30
0.0
 40
2.8355
  0
CIRCLE
  8
OBJMEDIUM
 10
-0.002375
 20
0.0
 30
0.0
 40
4.125
  0
LINE
  8
CENTER
 10
-0.002375
 20
4.278797
 30
0.0
 11
-0.002375
 21
-4.30385
 31
0.0
  0
CIRCLE
  8
OBJMEDIUM
 10
-0.002375
 20
0.0
 30
0.0
 40
0.1405
  0
TEXT
  8
DIM01
 10
-0.002667
 20
4.410873
 30
0.0
 40
0.2
  1
t
  7
ACL
  0
TEXT
  8
DIM01
 10
4.706849
 20
-0.162147
 30
0.0
 40
0.2
  1
t
  7
ACL
  0
ENDBLK
  8
0
  0
BLOCK
  8
0
  2
*D10
 70
    65
 10
0.0
 20
0.0
 30
0.0
  3
*D
  0
LINE
  8
0
  6
BYBLOCK
 62
     0
 10
4.448479
 20
7.848923
 30
0.0
 11
4.448479
 21
9.705047
 31
0.0
  0
LINE
  8
0
  6
BYBLOCK
 62
     0
 10
14.339911
 20
3.848923
 30
0.0
 11
14.339911
 21
9.705047
 31
0.0
  0
LINE
  8
0
  6
BYBLOCK
 62
     0
 10
4.598479
 20
9.642047
 30
0.0
 11
9.083659
 21
9.642047
 31
0.0
  0
LINE
  8
0
  6
BYBLOCK
 62
     0
 10
14.189911
 20
9.642047
 30
0.0
 11
9.704731
 21
9.642047
 31
0.0
  0
SOLID
  8
0
  6
BYBLOCK
 62
     0
 10
4.598479
 20
9.667047
 30
0.0
 11
4.598479
 21
9.617047
 31
0.0
 12
4.448479
 22
9.642047
 32
0.0
 13
4.448479
 23
9.642047
 33
0.0
  0
SOLID
  8
0
  6
BYBLOCK
 62
     0
 10
14.189911
 20
9.667047
 30
0.0
 11
14.189911
 21
9.617047
 31
0.0
 12
14.339911
 22
9.642047
 32
0.0
 13
14.339911
 23
9.642047
 33
0.0
  0
TEXT
  8
0
  6
BYBLOCK
 62
     0
 10
9.156695
 20
9.579547
 30
0.0
 40
0.125
  1
9.891
 41
0.95
 72
     1
 11
9.394195
 21
9.642047
 31
0.0
 73
     2
  0
POINT
  8
DEFPOINTS
  6
BYBLOCK
 62
     0
 10
4.448479
 20
7.785923
 30
0.0
  0
POINT
  8
DEFPOINTS
  6
BYBLOCK
 62
     0
 10
14.339911
 20
3.785923
 30
0.0
  0
POINT
  8
DEFPOINTS
  6
BYBLOCK
 62
     0
 10
14.339911
 20
9.642047
 30
0.0
  0
ENDBLK
  8
0
  0
BLOCK
  8
0
  2
*D11
 70
    65
 10
0.0
 20
0.0
 30
0.0
  3
*D
  0
LINE
  8
0
  6
BYBLOCK
 62
     0
 10
4.55472
 20
7.902832
 30
0.0
 11
3.2048
 21
7.902832
 31
0.0
  0
LINE
  8
0
  6
BYBLOCK
 62
     0
 10
4.535446
 20
-0.336559
 30
0.0
 11
3.2048
 21
-0.336559
 31
0.0
  0
LINE
  8
0
  6
BYBLOCK
 62
     0
 10
3.2678
 20
7.752832
 30
0.0
 11
3.2678
 21
4.07917
 31
0.0
  0
LINE
  8
0
  6
BYBLOCK
 62
     0
 10
3.2678
 20
-0.186559
 30
0.0
 11
3.2678
 21
3.77417
 31
0.0
  0
SOLID
  8
0
  6
BYBLOCK
 62
     0
 10
3.2428
 20
7.752832
 30
0.0
 11
3.2928
 21
7.752832
 31
0.0
 12
3.2678
 22
7.902832
 32
0.0
 13
3.2678
 23
7.902832
 33
0.0
  0
SOLID
  8
0
  6
BYBLOCK
 62
     0
 10
3.2428
 20
-0.186559
 30
0.0
 11
3.2928
 21
-0.186559
 31
0.0
 12
3.2678
 22
-0.336559
 32
0.0
 13
3.2678
 23
-0.336559
 33
0.0
  0
TEXT
  8
0
  6
BYBLOCK
 62
     0
 10
3.041279
 20
3.86417
 30
0.0
 40
0.125
  1
%%C8.25
 41
0.95
 72
     1
 11
3.284434
 21
3.92667
 31
0.0
 73
     2
  0
POINT
  8
DEFPOINTS
  6
BYBLOCK
 62
     0
 10
4.61772
 20
7.902832
 30
0.0
  0
POINT
  8
DEFPOINTS
  6
BYBLOCK
 62
     0
 10
4.598446
 20
-0.336559
 30
0.0
  0
POINT
  8
DEFPOINTS
  6
BYBLOCK
 62
     0
 10
3.2678
 20
-0.336559
 30
0.0
  0
ENDBLK
  8
0
  0
ENDSEC
  0
SECTION
  2
ENTITIES
  0
VIEWPORT
  8
0
 67
     1
 68
     1
 10
5.967213
 20
4.0
 30
0.0
 40
11.934425
 41
7.999999
 69
     1
1001
ACAD
1000
MVIEW
1002
{
1070
    16
1010
0.0
1020
0.0
1030
0.0
1010
0.0
1020
0.0
1030
1.0
1040
0.0
1040
7.999999
1040
5.967213
1040
4.0
1040
50.0
1040
0.0
1040
0.0
1070
     0
1070
   100
1070
     1
1070
     3
1070
     0
1070
     0
1070
     0
1070
     0
1040
0.0
1040
0.0
1040
0.0
1040
1.0
1040
1.0
1040
0.0
1040
0.0
1070
     0
1002
{
1002
}
1002
}
  0
INSERT
  8
0
  2
CP100D
 10
-3.307973
 20
3.800514
 30
0.0
  0
LINE
  8
OBJMEDIUM
 10
10.795402
 20
0.801817
 30
0.0
 11
12.130039
 21
-0.579958
 31
0.0
  0
LINE
  8
OBJMEDIUM
 10
10.910616
 20
1.085567
 30
0.0
 11
12.262474
 21
-0.314037
 31
0.0
  0
LINE
  8
OBJMEDIUM
 10
6.908011
 20
-0.532468
 30
0.0
 11
7.770226
 21
0.716578
 31
0.0
  0
LINE
  8
OBJMEDIUM
 10
6.818786
 20
-0.274462
 30
0.0
 11
7.631982
 21
0.903572
 31
0.0
  0
ARC
  8
OBJMEDIUM
 10
6.007616
 20
-0.534433
 30
0.0
 40
0.125
 50
90.0
 51
180.0
  0
LINE
  8
OBJMEDIUM
 10
5.882616
 20
-0.694433
 30
0.0
 11
6.599399
 21
-0.694433
 31
0.0
  0
LINE
  8
OBJMEDIUM
 10
5.882616
 20
-0.694433
 30
0.0
 11
5.882616
 21
-0.534433
 31
0.0
  0
ARC
  8
OBJMEDIUM
 10
6.599399
 20
-0.319433
 30
0.0
 40
0.375
 50
270.0
 51
325.382739
  0
LINE
  8
CENTER
 10
6.289616
 20
-0.295774
 30
0.0
 11
6.289616
 21
-0.858254
 31
0.0
  0
LINE
  8
OBJMEDIUM
 10
6.007616
 20
-0.409433
 30
0.0
 11
6.56161
 21
-0.409433
 31
0.0
  0
ARC
  8
OBJMEDIUM
 10
6.56161
 20
-0.096933
 30
0.0
 40
0.3125
 50
270.0
 51
325.382739
  0
LINE
  8
OBJMEDIUM
 10
9.009866
 20
0.770567
 30
0.0
 11
9.875349
 21
0.770567
 31
0.0
  0
LINE
  8
OBJMEDIUM
 10
8.195366
 20
0.770567
 30
0.0
 11
9.009866
 21
0.770567
 31
0.0
  0
ARC
  8
OBJMEDIUM
 10
7.873096
 20
0.645567
 30
0.0
 40
0.125
 50
90.0
 51
145.382739
  0
LINE
  8
OBJMEDIUM
 10
7.873096
 20
0.770567
 30
0.0
 11
8.195366
 21
0.770567
 31
0.0
  0
LINE
  8
OBJMEDIUM
 10
7.850616
 20
0.991746
 30
0.0
 11
7.850616
 21
0.976128
 31
0.0
  0
ARC
  8
OBJMEDIUM
 10
7.868381
 20
1.042231
 30
0.0
 40
0.015625
 50
105.410264
 51
177.588098
  0
LINE
  8
OBJMEDIUM
 10
10.036011
 20
0.801817
 30
0.0
 11
10.795402
 21
0.801817
 31
0.0
  0
LINE
  8
OBJMEDIUM
 10
9.875349
 20
0.770567
 30
0.0
 11
10.036011
 21
0.801817
 31
0.0
  0
LINE
  8
OBJMEDIUM
 10
12.399765
 20
-0.694433
 30
0.0
 11
13.322616
 21
-0.694433
 31
0.0
  0
LINE
  8
OBJMEDIUM
 10
12.487245
 20
-0.409433
 30
0.0
 11
13.197616
 21
-0.409433
 31
0.0
  0
ARC
  8
OBJMEDIUM
 10
12.399765
 20
-0.319433
 30
0.0
 40
0.375
 50
224.005855
 51
270.0
  0
LINE
  8
CENTER
 10
12.882616
 20
-0.27446
 30
0.0
 11
12.882616
 21
-0.803772
 31
0.0
  0
ARC
  8
OBJMEDIUM
 10
12.487245
 20
-0.096933
 30
0.0
 40
0.3125
 50
224.005855
 51
270.0
  0
LINE
  8
OBJMEDIUM
 10
13.322616
 20
-0.534433
 30
0.0
 11
13.322616
 21
-0.694433
 31
0.0
  0
ARC
  8
OBJMEDIUM
 10
13.197616
 20
-0.534433
 30
0.0
 40
0.125
 50
0.0
 51
90.0
  0
DIMENSION
  8
DIM01
  2
*D10
 10
14.339911
 20
9.642047
 30
0.0
 11
9.394195
 21
9.642047
 31
0.0
 13
4.448479
 23
7.785923
 33
0.0
 14
14.339911
 24
3.785923
 34
0.0
  0
DIMENSION
  8
DIM01
  2
*D11
 10
3.2678
 20
-0.336559
 30
0.0
 11
3.284434
 21
3.92667
 31
0.0
 70
   128
  1
%%C8.25
 13
4.61772
 23
7.902832
 33
0.0
 14
4.598446
 24
-0.336559
 34
0.0
 50
90.0
  0
TEXT
  8
DIM01
 10
7.178199
 20
8.085031
 30
0.0
 40
0.2
  1
t
  7
ACL
  0
LINE
  8
CENTER
 10
3.823815
 20
3.800514
 30
0.0
 11
14.831493
 21
3.800514
 31
0.0
  0
ARC
  8
OBJMEDIUM
 10
4.220031
 20
4.550514
 30
0.0
 40
0.25
 50
90.0
 51
180.0
  0
ARC
  8
OBJMEDIUM
 10
4.008274
 20
3.327622
 30
0.0
 40
0.197254
 50
170.401058
 51
249.371995
  0
LINE
  8
OBJMEDIUM
 10
3.970031
 20
4.550514
 30
0.0
 11
3.970031
 21
3.050514
 31
0.0
  0
LINE
  8
OBJMEDIUM
 10
3.938781
 20
4.520514
 30
0.0
 11
3.938781
 21
3.080514
 31
0.0
  0
LINE
  8
OBJMEDIUM
 10
4.220031
 20
2.800514
 30
0.0
 11
4.448479
 21
2.800514
 31
0.0
  0
ARC
  8
OBJMEDIUM
 10
4.220031
 20
3.050514
 30
0.0
 40
0.25
 50
180.0
 51
270.0
  0
LINE
  8
OBJMEDIUM
 10
3.938781
 20
3.080514
 30
0.0
 11
3.970031
 21
3.080514
 31
0.0
  0
LINE
  8
OBJMEDIUM
 10
3.813781
 20
4.240514
 30
0.0
 11
3.813781
 21
3.360514
 31
0.0
  0
ARC
  8
HIDDEN
 10
3.98073
 20
4.053123
 30
0.0
 40
0.162222
 50
177.95322
 51
255.823655
  0
ARC
  8
HIDDEN
 10
3.963985
 20
3.809758
 30
0.0
 40
0.082552
 50
106.165809
 51
248.851748
  0
ARC
  8
HIDDEN
 10
3.970362
 20
3.564416
 30
0.0
 40
0.160612
 50
105.514136
 51
170.807114
  0
LINE
  8
OBJMEDIUM
 10
3.970031
 20
4.520514
 30
0.0
 11
3.938781
 21
4.520514
 31
0.0
  0
ARC
  8
OBJMEDIUM
 10
4.014122
 20
4.270045
 30
0.0
 40
0.202505
 50
111.84161
 51
188.385336
  0
LINE
  8
OBJMEDIUM
 10
4.448479
 20
4.800514
 30
0.0
 11
4.220031
 21
4.800514
 31
0.0
  0
LINE
  8
CENTER
 10
3.802263
 20
3.785923
 30
0.0
 11
14.809941
 21
3.785923
 31
0.0
  0
LINE
  8
OBJMEDIUM
 10
9.09448
 20
0.933757
 30
0.0
 11
8.605119
 21
0.925928
 31
0.0
  0
LINE
  8
OBJMEDIUM
 10
8.605119
 20
6.645917
 30
0.0
 11
9.09448
 21
6.638088
 31
0.0
  0
LINE
  8
OBJMEDIUM
 10
4.448479
 20
7.785923
 30
0.0
 11
4.448479
 21
-0.214077
 31
0.0
  0
LINE
  8
OBJMEDIUM
 10
7.071957
 20
0.950423
 30
0.0
 11
7.070895
 21
6.621423
 31
0.0
  0
LINE
  8
OBJMEDIUM
 10
7.28076
 20
6.621423
 30
0.0
 11
7.283528
 21
0.950423
 31
0.0
  0
ARC
  8
OBJMEDIUM
 10
6.387479
 20
-1.276577
 30
0.0
 40
2.187
 50
90.0
 51
140.56005
  0
ARC
  8
OBJMEDIUM
 10
4.573479
 20
-0.214077
 30
0.0
 40
0.125
 50
180.0
 51
0.0
  0
LINE
  8
OBJMEDIUM
 10
4.698459
 20
-0.211882
 30
0.0
 11
4.698459
 21
0.11058
 31
0.0
  0
LINE
  8
OBJMEDIUM
 10
7.283528
 20
0.910423
 30
0.0
 11
7.25599
 21
0.910423
 31
0.0
  0
LINE
  8
OBJMEDIUM
 10
7.099495
 20
0.910423
 30
0.0
 11
6.387479
 21
0.910423
 31
0.0
  0
ARC
  8
OBJMEDIUM
 10
7.177742
 20
0.89377
 30
0.0
 40
0.08
 50
12.014106
 51
167.985894
  0
LINE
  8
OBJMEDIUM
 10
8.605119
 20
0.925928
 30
0.0
 11
8.105119
 21
0.917928
 31
0.0
  0
LINE
  8
OBJMEDIUM
 10
8.105079
 20
0.917927
 30
0.0
 11
7.605079
 21
0.910427
 31
0.0
  0
LINE
  8
OBJMEDIUM
 10
7.604479
 20
0.910423
 30
0.0
 11
7.283528
 21
0.910423
 31
0.0
  0
LINE
  8
CENTER
 10
7.178199
 20
5.103295
 30
0.0
 11
7.178199
 21
7.488887
 31
0.0
  0
ARC
  8
OBJMEDIUM
 10
6.387479
 20
8.848423
 30
0.0
 40
2.187
 50
219.43995
 51
270.0
  0
ARC
  8
OBJMEDIUM
 10
7.175827
 20
6.679639
 30
0.0
 40
0.12
 50
209.021298
 51
330.978702
  0
LINE
  8
OBJMEDIUM
 10
7.253726
 20
6.661423
 30
0.0
 11
7.599154
 21
6.661423
 31
0.0
  0
LINE
  8
OBJMEDIUM
 10
6.387479
 20
6.661423
 30
0.0
 11
7.097929
 21
6.661423
 31
0.0
  0
ARC
  8
OBJMEDIUM
 10
7.175827
 20
6.679639
 30
0.0
 40
0.08
 50
193.161819
 51
346.838181
  0
LINE
  8
OBJMEDIUM
 10
8.105473
 20
6.653912
 30
0.0
 11
8.605119
 21
6.645917
 31
0.0
  0
LINE
  8
OBJMEDIUM
 10
7.610403
 20
6.661338
 30
0.0
 11
8.104724
 21
6.653923
 31
0.0
  0
ARC
  8
OBJMEDIUM
 10
7.599154
 20
5.911423
 30
0.0
 40
0.75
 50
89.140628
 51
90.0
  0
ARC
  8
OBJMEDIUM
 10
8.093475
 20
5.904008
 30
0.0
 40
0.75
 50
89.083346
 51
89.140628
  0
ARC
  8
OBJMEDIUM
 10
8.093475
 20
5.904008
 30
0.0
 40
0.75
 50
89.083346
 51
89.140628
  0
ARC
  8
OBJMEDIUM
 10
4.573479
 20
7.785923
 30
0.0
 40
0.125
 50
0.0
 51
180.0
  0
LINE
  8
OBJMEDIUM
 10
4.698467
 20
7.784186
 30
0.0
 11
4.698467
 21
7.460689
 31
0.0
  0
ARC
  8
OBJMEDIUM
 10
12.713048
 20
2.506139
 30
0.0
 40
0.75
 50
298.63454
 51
308.025407
  0
LINE
  8
OBJMEDIUM
 10
12.620031
 20
1.60107
 30
0.0
 11
12.151748
 21
1.403454
 31
0.0
  0
LINE
  8
OBJMEDIUM
 10
11.088961
 20
1.118018
 30
0.0
 11
10.632057
 21
1.046741
 31
0.0
  0
LINE
  8
OBJMEDIUM
 10
10.101968
 20
0.995605
 30
0.0
 11
9.618871
 21
0.957924
 31
0.0
  0
LINE
  8
OBJMEDIUM
 10
9.595012
 20
0.956445
 30
0.0
 11
9.116945
 21
0.934454
 31
0.0
  0
ARC
  8
OBJMEDIUM
 10
9.082482
 20
1.683661
 30
0.0
 40
0.75
 50
270.916654
 51
272.633749
  0
ARC
  8
OBJMEDIUM
 10
9.560549
 20
1.705653
 30
0.0
 40
0.75
 50
272.633749
 51
274.46004
  0
LINE
  8
OBJMEDIUM
 10
10.586646
 20
1.04107
 30
0.0
 11
10.113836
 21
0.996626
 31
0.0
  0
ARC
  8
OBJMEDIUM
 10
10.043645
 20
1.743334
 30
0.0
 40
0.75
 50
274.46004
 51
275.370024
  0
ARC
  8
OBJMEDIUM
 10
10.516455
 20
1.787778
 30
0.0
 40
0.75
 50
275.370024
 51
278.866676
  0
LINE
  8
OBJMEDIUM
 10
12.083529
 20
1.378485
 30
0.0
 11
11.645514
 21
1.241824
 31
0.0
  0
LINE
  8
OBJMEDIUM
 10
11.58328
 20
1.225302
 30
0.0
 11
11.134506
 21
1.126572
 31
0.0
  0
ARC
  8
OBJMEDIUM
 10
10.973359
 20
1.859055
 30
0.0
 40
0.75
 50
278.866676
 51
282.407419
  0
ARC
  8
OBJMEDIUM
 10
11.422133
 20
1.957786
 30
0.0
 40
0.75
 50
282.407419
 51
287.327922
  0
ARC
  8
OBJMEDIUM
 10
11.860149
 20
2.094446
 30
0.0
 40
0.75
 50
287.327922
 51
292.879745
  0
LINE
  8
OBJMEDIUM
 10
13.072464
 20
1.847869
 30
0.0
 11
12.623648
 21
1.602815
 31
0.0
  0
LINE
  8
OBJMEDIUM
 10
12.620031
 20
1.60107
 30
0.0
 11
12.623648
 21
1.602815
 31
0.0
  0
LINE
  8
OBJMEDIUM
 10
12.151748
 20
6.168391
 30
0.0
 11
12.587152
 21
5.98465
 31
0.0
  0
LINE
  8
OBJMEDIUM
 10
10.632057
 20
6.525104
 30
0.0
 11
11.088961
 21
6.453827
 31
0.0
  0
LINE
  8
OBJMEDIUM
 10
9.607589
 20
6.614801
 30
0.0
 11
10.101968
 21
6.57624
 31
0.0
  0
LINE
  8
OBJMEDIUM
 10
9.116945
 20
6.637391
 30
0.0
 11
9.606317
 21
6.61488
 31
0.0
  0
ARC
  8
OBJMEDIUM
 10
9.082482
 20
5.888184
 30
0.0
 40
0.75
 50
87.366251
 51
89.083346
  0
LINE
  8
OBJMEDIUM
 10
10.113836
 20
6.575219
 30
0.0
 11
10.586646
 21
6.530775
 31
0.0
  0
ARC
  8
OBJMEDIUM
 10
10.043645
 20
5.828511
 30
0.0
 40
0.75
 50
84.629976
 51
85.53996
  0
ARC
  8
OBJMEDIUM
 10
10.516455
 20
5.784067
 30
0.0
 40
0.75
 50
81.133324
 51
84.629976
  0
LINE
  8
OBJMEDIUM
 10
11.645514
 20
6.330021
 30
0.0
 11
12.083529
 21
6.193361
 31
0.0
  0
LINE
  8
OBJMEDIUM
 10
11.134506
 20
6.445273
 30
0.0
 11
11.58328
 21
6.346543
 31
0.0
  0
ARC
  8
OBJMEDIUM
 10
10.973359
 20
5.71279
 30
0.0
 40
0.75
 50
77.592581
 51
81.133324
  0
ARC
  8
OBJMEDIUM
 10
11.422133
 20
5.61406
 30
0.0
 40
0.75
 50
72.672078
 51
77.592581
  0
ARC
  8
OBJMEDIUM
 10
11.860149
 20
5.477399
 30
0.0
 40
0.75
 50
67.120255
 51
72.672078
  0
ARC
  8
OBJMEDIUM
 10
13.454247
 20
4.308136
 30
0.0
 40
0.75
 50
14.562756
 51
37.955342
  0
LINE
  8
OBJMEDIUM
 10
14.313203
 20
3.587285
 30
0.0
 11
14.182234
 21
3.083144
 31
0.0
  0
LINE
  8
OBJMEDIUM
 10
14.326729
 20
3.645923
 30
0.0
 11
14.285401
 21
3.645923
 31
0.0
  0
LINE
  8
OBJMEDIUM
 10
14.285401
 20
3.925923
 30
0.0
 11
14.326729
 21
3.925923
 31
0.0
  0
LINE
  8
OBJMEDIUM
 10
14.315816
 20
3.597342
 30
0.0
 11
14.180152
 21
3.075129
 31
0.0
  0
LINE
  8
OBJMEDIUM
 10
14.180152
 20
4.496716
 30
0.0
 11
14.315816
 21
3.974503
 31
0.0
  0
LINE
  8
OBJMEDIUM
 10
13.556477
 20
2.213607
 30
0.0
 11
13.177645
 21
1.91736
 31
0.0
  0
LINE
  8
OBJMEDIUM
 10
13.175057
 20
1.915336
 30
0.0
 11
13.177645
 21
1.91736
 31
0.0
  0
LINE
  8
OBJMEDIUM
 10
14.040522
 20
2.795894
 30
0.0
 11
13.692736
 21
2.350032
 31
0.0
  0
LINE
  8
OBJMEDIUM
 10
14.040522
 20
2.795894
 30
0.0
 11
13.692736
 21
2.350032
 31
0.0
  0
LINE
  8
OBJMEDIUM
 10
13.692736
 20
2.350032
 30
0.0
 11
13.692736
 21
2.350032
 31
0.0
  0
ARC
  8
OBJMEDIUM
 10
13.069828
 20
2.83592
 30
0.0
 40
0.79
 50
308.025407
 51
322.044658
  0
ARC
  8
OBJMEDIUM
 10
13.417614
 20
3.281781
 30
0.0
 40
0.79
 50
322.044658
 51
345.437244
  0
ARC
  8
OBJMEDIUM
 10
13.589911
 20
3.785923
 30
0.0
 40
0.75
 50
345.437244
 51
14.562756
  0
LINE
  8
OBJMEDIUM
 10
13.175057
 20
5.656509
 30
0.0
 11
13.560351
 21
5.355209
 31
0.0
  0
LINE
  8
OBJMEDIUM
 10
12.654969
 20
5.951929
 30
0.0
 11
13.072464
 21
5.723976
 31
0.0
  0
ARC
  8
OBJMEDIUM
 10
12.295553
 20
5.293658
 30
0.0
 40
0.75
 50
61.36546
 51
67.120255
  0
ARC
  8
OBJMEDIUM
 10
12.713048
 20
5.065706
 30
0.0
 40
0.75
 50
51.974593
 51
61.36546
  0
ARC
  8
OBJMEDIUM
 10
13.098343
 20
4.764405
 30
0.0
 40
0.75
 50
37.955342
 51
51.974593
  0
ARC
  8
OBJMEDIUM
 10
13.098343
 20
4.764405
 30
0.0
 40
0.75
 50
37.955342
 51
51.974593
  0
LINE
  8
OBJMEDIUM
 10
13.689711
 20
5.225691
 30
0.0
 11
14.045615
 21
4.769422
 31
0.0
  0
LINE
  8
OBJMEDIUM
 10
4.698479
 20
7.785923
 30
0.0
 11
4.698479
 21
-0.214077
 31
0.0
  0
CIRCLE
  8
OBJMEDIUM
 10
-3.314252
 20
3.798234
 30
0.0
 40
1.325215
  0
CIRCLE
  8
OBJMEDIUM
 10
-3.314252
 20
3.798234
 30
0.0
 40
1.184485
  0
CIRCLE
  8
OBJMEDIUM
 10
-3.314252
 20
3.798234
 30
0.0
 40
1.715
  0
ENDSEC
  0
EOF
